Swans: The Glowing Man. Live 2014-2015 (Bonus DVD) [2016, Noise rock, DVD5]

Ответить на тему
Статистика раздачи [Обновить пиров]
Размер:  4.38 GB   |    Зарегистрирован:  1 год 5 месяцев   |    Скачан:  0 раз

Полного источника не было: Никогда

 
   
 
 
 
Автор Сообщение

galltoto.com

Создавать темы 07-Авг-2017 23:49

[Цитировать]

Swans: The Glowing Man. Live 2014-2015
Страна: USA
Жанр: Noise rock
Продолжительность: 01:57:48
Год выхода: 2016 г.
Лейбл: Mute
Описание: DVD из бокс-сета The Glowing Man [TRCP-203]. Записи с концертов группы, проходивших в 2015 году.
CD со сканами здесь пока нету, но будет.
Треклист:
01. Frankie M.
02. Just A Little Boy
03. A Little God In My Hands
04. Cloud Of Forgetting
05. Cloud Of Unknowing
06. The Glowing Man
Разбивка на главы по трекам: есть
Качество : DVD5
Формат файла: DVD video
Видео кодек: MPEG2
Аудио кодек: AC3
Видео: NTSC 16:9 (720x480) VBR Auto Pan&Scan, 4906-5097 кбит/сек; 23,976 кадра/сек
Аудио: English, AC3, 2 канала, 192 кбит/сек, Delay 0 mSec

DVDinfo

Title: Swans - Live 2015 (2016) [DVD]Size: 4.38 Gb ( 4 589 900 KBytes ) - DVD-5Enabled regions: 1, 2, 3, 4, 5, 6, 7, 8
VTS_01 : Play Length: 01:57:48 Video: NTSC 16:9 (720x480) VBR, Auto Pan&Scan Audio: Not specified (Dolby AC3, 2 ch)
Menu Video: NTSC 16:9 (720x480) VBR Auto Pan&ScanMenu Subtitles: Not specifiedMenu English Language Unit : Root Menu

MediaInfo

ОбщееПолное имя : D:\Моя музыка\DVD\Swans - Live 2015 (2016) [DVD]\VIDEO_TS\VIDEO_TS.BUPФормат файла : DVD VideoПрофиль формата : MenuРазмер файла : 16,0 КбайтРежим общего битрейта : Переменный
ВидеоИдентификатор : 224 (0xE0)Формат файла : MPEG VideoВерсия формата : Version 2Вид битрейта : ПеременныйШирина : 720 пикселейВысота : 480 пикселейСоотношение сторон : 16:9Частота кадров : 29,970 (29970/1000) кадров/секСтандарт вещания : NTSCМетод сжатия : С потерями
ТекстФормат файла : RLEФормат файла/Информация : Run-length encodingБитовая глубина : 2 бит
ОбщееПолное имя : D:\Моя музыка\DVD\Swans - Live 2015 (2016) [DVD]\VIDEO_TS\VIDEO_TS.IFOФормат файла : DVD VideoПрофиль формата : MenuРазмер файла : 16,0 КбайтРежим общего битрейта : Переменный
ВидеоИдентификатор : 224 (0xE0)Формат файла : MPEG VideoВерсия формата : Version 2Вид битрейта : ПеременныйШирина : 720 пикселейВысота : 480 пикселейСоотношение сторон : 16:9Частота кадров : 29,970 (29970/1000) кадров/секСтандарт вещания : NTSCМетод сжатия : С потерями
ТекстФормат файла : RLEФормат файла/Информация : Run-length encodingБитовая глубина : 2 бит
ОбщееПолное имя : D:\Моя музыка\DVD\Swans - Live 2015 (2016) [DVD]\VIDEO_TS\VIDEO_TS.VOBФормат файла : MPEG-PSРазмер файла : 114 КбайтПродолжительность : 467 мс.Общий поток : 2000 Кбит/сек
ВидеоИдентификатор : 224 (0xE0)Формат файла : MPEG VideoВерсия формата : Version 2Профиль формата : Main@MainПараметр BVOP формата : ДаПараметр матрицы формата : ВыборочнаяСтруктура изображения : FrameПродолжительность : 467 мс.Максимальный битрейт : 2000 Кбит/секШирина : 720 пикселейВысота : 480 пикселейСоотношение сторон : 4:3Частота кадров : 29,970 (30000/1001) кадров/секСтандарт вещания : NTSCЦветовое пространство : YUVСубдискретизация насыщенности : 4:2:0Битовая глубина : 8 битТип развёртки : ЧересстрочнаяПорядок развёртки : Верхнее поле первоеМетод сжатия : С потерямиВременной код первого кадра : 00:00:00:01Оригинал временного кода : Group of pictures header
ТекстИдентификатор : 189 (0xBD)-32 (0x20)Формат файла : RLEФормат файла/Информация : Run-length encodingРежим смешивания : DVD-Video
Меню
ОбщееПолное имя : D:\Моя музыка\DVD\Swans - Live 2015 (2016) [DVD]\VIDEO_TS\VTS_01_0.BUPФормат файла : DVD VideoПрофиль формата : ProgramРазмер файла : 80,0 КбайтПродолжительность : 1 ч. 57 м.Режим общего битрейта : ПеременныйОбщий поток : 93 бит/сек
ВидеоИдентификатор : 224 (0xE0)Формат файла : MPEG VideoВерсия формата : Version 2Продолжительность : 1 ч. 57 м.Вид битрейта : ПеременныйШирина : 720 пикселейВысота : 480 пикселейСоотношение сторон : 16:9Частота кадров : 29,970 (29970/1000) кадров/секСтандарт вещания : NTSCМетод сжатия : С потерями
АудиоИдентификатор : 128 (0x80)Формат файла : AC-3Формат файла/Информация : Audio Coding 3Продолжительность : 1 ч. 57 м.Каналы : 2 каналаЧастота : 48,0 КГцМетод сжатия : С потерями
МенюПродолжительность : 1 ч. 57 м.00:00:00.000 : Chapter 100:23:08.000 : Chapter 200:34:52.500 : Chapter 301:01:32.000 : Chapter 401:15:37.000 : Chapter 501:27:00.000 : Chapter 6List (Audio) : 0
ОбщееПолное имя : D:\Моя музыка\DVD\Swans - Live 2015 (2016) [DVD]\VIDEO_TS\VTS_01_0.IFOФормат файла : DVD VideoПрофиль формата : ProgramРазмер файла : 80,0 КбайтПродолжительность : 1 ч. 57 м.Режим общего битрейта : ПеременныйОбщий поток : 93 бит/сек
ВидеоИдентификатор : 224 (0xE0)Формат файла : MPEG VideoВерсия формата : Version 2Продолжительность : 1 ч. 57 м.Вид битрейта : ПеременныйШирина : 720 пикселейВысота : 480 пикселейСоотношение сторон : 16:9Частота кадров : 29,970 (29970/1000) кадров/секСтандарт вещания : NTSCМетод сжатия : С потерями
АудиоИдентификатор : 128 (0x80)Формат файла : AC-3Формат файла/Информация : Audio Coding 3Продолжительность : 1 ч. 57 м.Каналы : 2 каналаЧастота : 48,0 КГцМетод сжатия : С потерями
МенюПродолжительность : 1 ч. 57 м.00:00:00.000 : Chapter 100:23:08.000 : Chapter 200:34:52.500 : Chapter 301:01:32.000 : Chapter 401:15:37.000 : Chapter 501:27:00.000 : Chapter 6List (Audio) : 0
ОбщееПолное имя : D:\Моя музыка\DVD\Swans - Live 2015 (2016) [DVD]\VIDEO_TS\VTS_01_0.VOBФормат файла : MPEG-PSРазмер файла : 12,5 МбайтПродолжительность : 15 с. 15 мс.Режим общего битрейта : ПеременныйОбщий поток : 7001 Кбит/сек
ВидеоИдентификатор : 224 (0xE0)Формат файла : MPEG VideoВерсия формата : Version 2Профиль формата : Main@MainПараметр BVOP формата : ДаПараметр матрицы формата : ВыборочнаяПараметр GOP формата : M=3, N=15Структура изображения : FrameПродолжительность : 15 с. 15 мс.Вид битрейта : ПеременныйБитрейт : 6862 Кбит/секМаксимальный битрейт : 8000 Кбит/секШирина : 720 пикселейВысота : 480 пикселейСоотношение сторон : 16:9Частота кадров : 29,970 (30000/1001) кадров/секСтандарт вещания : NTSCЦветовое пространство : YUVСубдискретизация насыщенности : 4:2:0Битовая глубина : 8 битТип развёртки : ЧересстрочнаяПорядок развёртки : Верхнее поле первоеМетод сжатия : С потерямиБит/(Пиксели*Кадры) : 0.662Временной код первого кадра : 00:00:00:00Оригинал временного кода : Group of pictures headerGOP, открыто/закрыто : ЗакрытоРазмер потока : 12,3 Мбайт (98%)Основные цвета : BT.601 NTSCХарактеристики трансфера : BT.601Коэффициенты матрицы : BT.601
Текст #1Идентификатор : 189 (0xBD)-32 (0x20)Формат файла : RLEФормат файла/Информация : Run-length encodingРежим смешивания : DVD-Video
Текст #2Идентификатор : 189 (0xBD)-33 (0x21)Формат файла : RLEФормат файла/Информация : Run-length encodingРежим смешивания : DVD-Video
Меню
ОбщееПолное имя : D:\Моя музыка\DVD\Swans - Live 2015 (2016) [DVD]\VIDEO_TS\VTS_01_1.VOBФормат файла : MPEG-PSРазмер файла : 1024 МбайтПродолжительность : 27 м. 7 с.Режим общего битрейта : ПеременныйОбщий поток : 5277 Кбит/сек
ВидеоИдентификатор : 224 (0xE0)Формат файла : MPEG VideoВерсия формата : Version 2Профиль формата : Main@MainПараметр BVOP формата : ДаПараметр матрицы формата : ВыборочнаяПараметр GOP формата : M=3, N=12Продолжительность : 27 м. 7 с.Вид битрейта : ПеременныйБитрейт : 4980 Кбит/секМаксимальный битрейт : 7500 Кбит/секШирина : 720 пикселейВысота : 480 пикселейСоотношение сторон : 16:9Частота кадров : 23,976 (24000/1001) кадра/секСтандарт вещания : NTSCЦветовое пространство : YUVСубдискретизация насыщенности : 4:2:0Битовая глубина : 8 битТип развёртки : ПрогрессивнаяПорядок развёртки : 2:3 PulldownМетод сжатия : С потерямиБит/(Пиксели*Кадры) : 0.601Временной код первого кадра : 00:00:00:00Оригинал временного кода : Group of pictures headerGOP, открыто/закрыто : ЗакрытоРазмер потока : 966 Мбайт (94%)Основные цвета : BT.601 NTSCХарактеристики трансфера : BT.601Коэффициенты матрицы : BT.601
АудиоИдентификатор : 189 (0xBD)-128 (0x80)Формат файла : AC-3Формат файла/Информация : Audio Coding 3Расширение режима : CM (complete main)Параметр Endianness формата : BigРежим смешивания : DVD-VideoПродолжительность : 27 м. 7 с.Вид битрейта : ПостоянныйБитрейт : 192 Кбит/секКаналы : 2 каналаРасположение каналов : Front: L RЧастота : 48,0 КГцЧастота кадров : 31,250 кадров/сек (1536 spf)Метод сжатия : С потерямиРазмер потока : 37,2 Мбайт (4%)
Меню
ОбщееПолное имя : D:\Моя музыка\DVD\Swans - Live 2015 (2016) [DVD]\VIDEO_TS\VTS_01_2.VOBФормат файла : MPEG-PSРазмер файла : 1024 МбайтПродолжительность : 27 м. 6 с.Режим общего битрейта : ПеременныйОбщий поток : 5281 Кбит/сек
ВидеоИдентификатор : 224 (0xE0)Формат файла : MPEG VideoВерсия формата : Version 2Профиль формата : Main@MainПараметр BVOP формата : ДаПараметр матрицы формата : ВыборочнаяПараметр GOP формата : M=3, N=12Продолжительность : 27 м. 6 с.Вид битрейта : ПеременныйБитрейт : 4984 Кбит/секМаксимальный битрейт : 7500 Кбит/секШирина : 720 пикселейВысота : 480 пикселейСоотношение сторон : 16:9Частота кадров : 23,976 (24000/1001) кадра/секСтандарт вещания : NTSCЦветовое пространство : YUVСубдискретизация насыщенности : 4:2:0Битовая глубина : 8 битТип развёртки : ПрогрессивнаяПорядок развёртки : 2:3 PulldownМетод сжатия : С потерямиБит/(Пиксели*Кадры) : 0.602Временной код первого кадра : 00:27:06:00Оригинал временного кода : Group of pictures headerGOP, открыто/закрыто : ЗакрытоРазмер потока : 966 Мбайт (94%)Основные цвета : BT.601 NTSCХарактеристики трансфера : BT.601Коэффициенты матрицы : BT.601
АудиоИдентификатор : 189 (0xBD)-128 (0x80)Формат файла : AC-3Формат файла/Информация : Audio Coding 3Расширение режима : CM (complete main)Параметр Endianness формата : BigРежим смешивания : DVD-VideoПродолжительность : 27 м. 6 с.Вид битрейта : ПостоянныйБитрейт : 192 Кбит/секКаналы : 2 каналаРасположение каналов : Front: L RЧастота : 48,0 КГцЧастота кадров : 31,250 кадров/сек (1536 spf)Метод сжатия : С потерямиЗадержка видео : -522 мс.Размер потока : 37,2 Мбайт (4%)
Меню
ОбщееПолное имя : D:\Моя музыка\DVD\Swans - Live 2015 (2016) [DVD]\VIDEO_TS\VTS_01_3.VOBФормат файла : MPEG-PSРазмер файла : 1024 МбайтПродолжительность : 27 м. 7 с.Режим общего битрейта : ПеременныйОбщий поток : 5278 Кбит/сек
ВидеоИдентификатор : 224 (0xE0)Формат файла : MPEG VideoВерсия формата : Version 2Профиль формата : Main@MainПараметр BVOP формата : ДаПараметр матрицы формата : ВыборочнаяПараметр GOP формата : M=3, N=12Продолжительность : 27 м. 7 с.Вид битрейта : ПеременныйБитрейт : 4981 Кбит/секМаксимальный битрейт : 7500 Кбит/секШирина : 720 пикселейВысота : 480 пикселейСоотношение сторон : 16:9Частота кадров : 23,976 (24000/1001) кадра/секСтандарт вещания : NTSCЦветовое пространство : YUVСубдискретизация насыщенности : 4:2:0Битовая глубина : 8 битТип развёртки : ПрогрессивнаяПорядок развёртки : 2:3 PulldownМетод сжатия : С потерямиБит/(Пиксели*Кадры) : 0.601Временной код первого кадра : 00:54:10:15Оригинал временного кода : Group of pictures headerGOP, открыто/закрыто : ЗакрытоРазмер потока : 966 Мбайт (94%)Основные цвета : BT.601 NTSCХарактеристики трансфера : BT.601Коэффициенты матрицы : BT.601
АудиоИдентификатор : 189 (0xBD)-128 (0x80)Формат файла : AC-3Формат файла/Информация : Audio Coding 3Расширение режима : CM (complete main)Параметр Endianness формата : BigРежим смешивания : DVD-VideoПродолжительность : 27 м. 7 с.Вид битрейта : ПостоянныйБитрейт : 192 Кбит/секКаналы : 2 каналаРасположение каналов : Front: L RЧастота : 48,0 КГцЧастота кадров : 31,250 кадров/сек (1536 spf)Метод сжатия : С потерямиЗадержка видео : -407 мс.Размер потока : 37,2 Мбайт (4%)
Меню
ОбщееПолное имя : D:\Моя музыка\DVD\Swans - Live 2015 (2016) [DVD]\VIDEO_TS\VTS_01_4.VOBФормат файла : MPEG-PSРазмер файла : 1024 МбайтПродолжительность : 26 м. 31 с.Режим общего битрейта : ПеременныйОбщий поток : 5396 Кбит/сек
ВидеоИдентификатор : 224 (0xE0)Формат файла : MPEG VideoВерсия формата : Version 2Профиль формата : Main@MainПараметр BVOP формата : ДаПараметр матрицы формата : ВыборочнаяПараметр GOP формата : M=3, N=12Продолжительность : 26 м. 31 с.Вид битрейта : ПеременныйБитрейт : 5097 Кбит/секМаксимальный битрейт : 7500 Кбит/секШирина : 720 пикселейВысота : 480 пикселейСоотношение сторон : 16:9Частота кадров : 23,976 (24000/1001) кадра/секСтандарт вещания : NTSCЦветовое пространство : YUVСубдискретизация насыщенности : 4:2:0Битовая глубина : 8 битТип развёртки : ПрогрессивнаяПорядок развёртки : 2:3 PulldownМетод сжатия : С потерямиБит/(Пиксели*Кадры) : 0.615Временной код первого кадра : 01:21:16:00Оригинал временного кода : Group of pictures headerGOP, открыто/закрыто : ЗакрытоРазмер потока : 967 Мбайт (94%)Основные цвета : BT.601 NTSCХарактеристики трансфера : BT.601Коэффициенты матрицы : BT.601
АудиоИдентификатор : 189 (0xBD)-128 (0x80)Формат файла : AC-3Формат файла/Информация : Audio Coding 3Расширение режима : CM (complete main)Параметр Endianness формата : BigРежим смешивания : DVD-VideoПродолжительность : 26 м. 31 с.Вид битрейта : ПостоянныйБитрейт : 192 Кбит/секКаналы : 2 каналаРасположение каналов : Front: L RЧастота : 48,0 КГцЧастота кадров : 31,250 кадров/сек (1536 spf)Метод сжатия : С потерямиЗадержка видео : -300 мс.Размер потока : 36,4 Мбайт (4%)
Меню
ОбщееПолное имя : D:\Моя музыка\DVD\Swans - Live 2015 (2016) [DVD]\VIDEO_TS\VTS_01_5.VOBФормат файла : MPEG-PSРазмер файла : 374 МбайтПродолжительность : 10 м. 3 с.Режим общего битрейта : ПеременныйОбщий поток : 5201 Кбит/сек
ВидеоИдентификатор : 224 (0xE0)Формат файла : MPEG VideoВерсия формата : Version 2Профиль формата : Main@MainПараметр BVOP формата : ДаПараметр матрицы формата : ВыборочнаяПараметр GOP формата : M=3, N=12Продолжительность : 10 м. 2 с.Вид битрейта : ПеременныйБитрейт : 4906 Кбит/секМаксимальный битрейт : 7500 Кбит/секШирина : 720 пикселейВысота : 480 пикселейСоотношение сторон : 16:9Частота кадров : 23,976 (24000/1001) кадра/секСтандарт вещания : NTSCЦветовое пространство : YUVСубдискретизация насыщенности : 4:2:0Битовая глубина : 8 битТип развёртки : ПрогрессивнаяПорядок развёртки : 2:3 PulldownМетод сжатия : С потерямиБит/(Пиксели*Кадры) : 0.592Временной код первого кадра : 01:47:46:15Оригинал временного кода : Group of pictures headerGOP, открыто/закрыто : ЗакрытоРазмер потока : 352 Мбайт (94%)Основные цвета : BT.601 NTSCХарактеристики трансфера : BT.601Коэффициенты матрицы : BT.601
АудиоИдентификатор : 189 (0xBD)-128 (0x80)Формат файла : AC-3Формат файла/Информация : Audio Coding 3Расширение режима : CM (complete main)Параметр Endianness формата : BigРежим смешивания : DVD-VideoПродолжительность : 10 м. 3 с.Вид битрейта : ПостоянныйБитрейт : 192 Кбит/секКаналы : 2 каналаРасположение каналов : Front: L RЧастота : 48,0 КГцЧастота кадров : 31,250 кадров/сек (1536 spf)Метод сжатия : С потерямиЗадержка видео : -679 мс.Размер потока : 13,8 Мбайт (4%)
Меню

Скриншот меню

Скриншоты




[galltoto.com]_t_5436979.torrent
Торрент: Зарегистрирован ·  [ 2017-08-07 23:48 ] ·  f74331fd6f352900ee52dfe61fe7b6f0b921988c

23 KB

Статус: проверено
Скачан: 0 раз
Размер: 4.38 GB
Оценка: 
(Голосов: 0)
Сказали спасибо: 0  Спасибо
Похожие темы
[Профиль]    [ЛС]
Показать сообщения:    
Ответить на тему

Текущее время: Сегодня 13:52

Часовой пояс: GMT + 7



Вы не можете начинать темы
Вы не можете отвечать на сообщения
Вы не можете редактировать свои сообщения
Вы не можете удалять свои сообщения
Вы не можете голосовать в опросах
Вы не можете прикреплять файлы к сообщениям
Вы можете скачивать файлы


PLUS SIZE (11) | Hardcore, Hardstyle, Jumpstyle (lossless) | Challenges in the Business Environment - 1735 Words