Степ / Чечётка / Strictly Tap Dance (Susan Bishop) [1991, танцы, VHSRip]

Ответить на тему
Статистика раздачи [Обновить пиров]
Размер:  1.41 GB   |    Зарегистрирован:  1 год 10 месяцев   |    Скачан:  4 раза

Полного источника не было: 3 месяца 9 дней

 
   
 
 
 
Автор Сообщение

galltoto.com

Создавать темы 19-Фев-2017 09:32

[Цитировать]

Степ / Чечётка / Strictly Tap Dance
Дата/Год выхода: 1991
Страна: U.K.
Жанр: танцы
Продолжительность: 01:37:28
Перевод: Не требуется
Русские субтитры: нет
Режиссер: Susan Bishop
Studio: Green Umbrella
Описание из ru.wikipedia: Чечётка — разновидность танца, характерной особенностью которой является ритмическая ударная работа ног (от цыганского «чячё» — «да»; слово которое часто выкрикивают во время исполнения чечётки). Другое название — степ (от англ. step dance, от step — «шаг»; в самом английском языке этот термин включает любые танцы с упором на работу ног, а для чечётки используется tap dance, от tap — «стучать», «лёгкий стук»). Как правило, чечётка исполняется в специальной обуви, подбитой металлическими пластинами. Впрочем, эти металлические пластины — завоевание нового времени. Основатели жанра (Билл Робинсон, Сэмми Дэвис-младший, братья Николас и др.) ими не пользовались, полагаясь на твёрдые подошвы туфель и дубовый пол.
Доп. информация: из моей коллекции
качество: VHSRip >> Сэмпл
формат: AVI
Видео: 672x528 (1.27:1), 25 fps, XviD build 50 ~1836 kbps avg, 0.21 bit/pixel
Аудио: 48 kHz, MPEG, 2 ch, ~224.00 kbps avg
PS >> правильнее будет расположить в разделе [url=viewforum.php?f=677]ТАНЦА[/url]

MediaInfo

Формат файла : AVIФормат файла/Информация : Audio Video InterleaveРазмер файла : 1,41 ГбайтПродолжительность : 1 ч. 37 м.Общий поток : 2071 Кбит/секНазвание фильма : Strictly Tap DanceПрограмма кодирования : VirtualDubMod 1.5.10.3 | www.virtualdub-fr.org || (build 2550/release)Библиотека кодирования : VirtualDubMod build 2550/releaseПравообладатель : sasikainen
ВидеоИдентификатор : 0Формат файла : MPEG-4 VisualПрофиль формата : Advanced Simple@L5Параметр BVOP формата : 2Параметр QPel формата : НетПараметр GMC формата : Без точки переходаПараметр матрицы формата : Default (MPEG)Идентификатор кодека : XVIDИдентификатор кодека/Подсказка : XviDПродолжительность : 1 ч. 37 м.Битрейт : 1837 Кбит/секШирина : 672 пикселяВысота : 528 пикселейСоотношение сторон : 1,273Частота кадров : 25,000 кадров/секЦветовое пространство : YUVСубдискретизация насыщенности : 4:2:0Битовая глубина : 8 битТип развёртки : ПрогрессивнаяМетод сжатия : С потерямиБит/(Пиксели*Кадры) : 0.207Размер потока : 1,25 Гбайт (89%)Библиотека кодирования : XviD 1.2.1 (UTC 2008-12-04)
АудиоИдентификатор : 1Формат файла : MPEG AudioВерсия формата : Version 1Профиль формата : Layer 2Идентификатор кодека : 50Продолжительность : 1 ч. 37 м.Вид битрейта : ПостоянныйБитрейт : 224 Кбит/секКаналы : 2 каналаЧастота : 48,0 КГцМетод сжатия : С потерямиРазмер потока : 156 Мбайт (11%)Выравнивание : Разделение по промежуткамПродолжительность промежутка : 40 мс. (1,00 видеокадр)Время предзагрузки промежутка : 500 мс.

Скриншоты



[galltoto.com]_t_4818141.torrent
Торрент: Зарегистрирован ·  [ 2017-02-19 09:24 ] ·  4a3282328802b7f60ee4a8da7e1f741a4add953f

15 KB

Статус: проверено
Скачан: 4 раз
Размер: 1.41 GB
Оценка: 
(Голосов: 0)
Сказали спасибо: 0  Спасибо
Похожие темы
[Профиль]    [ЛС]
Показать сообщения:    
Ответить на тему

Текущее время: Сегодня 13:12

Часовой пояс: GMT + 7



Вы не можете начинать темы
Вы не можете отвечать на сообщения
Вы не можете редактировать свои сообщения
Вы не можете удалять свои сообщения
Вы не можете голосовать в опросах
Вы не можете прикреплять файлы к сообщениям
Вы можете скачивать файлы


Documentary | A Girl Like Her (2015) | HD Take Back The Harbor (2018)