День, когда всплыла рыба / The Day the Fish Came Out (Михалис Какояннис / Mihalis Kakogiannis / Michael Cacoyannis) [1967, Греция, Великобритания, США, фантастика, комедия, Screener > DVD] [Советская прокатная копия] Dub (Ленфильм)

Ответить на тему
Статистика раздачи [Обновить пиров]
Размер:  3.17 GB   |    Зарегистрирован:  9 дней   |    Скачан:  0 раз

Полного источника не было: Никогда

 
   
 
 
 
Автор Сообщение

galltoto.com

Создавать темы 11-Фев-2019 16:52

[Цитировать]

День, когда всплыла рыба / The Day the Fish Came Out [Советская прокатная копия]- Страна: Греция, Великобритания, США
Жанр: фантастика, комедия
Год выхода: 1967
Продолжительность: 01:34:00-Перевод: Профессиональный (дублированный) - Киностудия "Ленфильм"
Субтитры: нет-Режиссер: Михалис Какояннис / Mihalis Kakogiannis / Michael Cacoyannis
В ролях: Том Кортни, Колин Блейкли, Сэм Уонамейкер, Кэндис Берген, Иан Огилви, Димитрис Николаидис, Nikos Alexiou, Патриция Бурк, Пэрис Александр, Марлена Каррер- | : -Описание: Во время полета над идиллическим греческим островом пилот самолета НАТО совершает ошибку. В итоге две атомные бомбы и новый вид биологического оружия падают на остров. Тихая, размеренная и скучная жизнь островитян меняется, когда на их земле появляются переодетые в туристов представители НАТО и ученые…-Семпл: http://sendfile.su/1474423-Тип релиза: Screener
Формат файла: DVD-Video
Видео: 720x576 (4:3) @ 768x576, 25.000 fps, MPEG-2 Video, ~4321 kbps, 0.417 bits/pixel
Аудио: Русский, 48.0 KHz, AC3, 2 ch, 256 kbps

DVDInfo

Title: День, когда всплыла рыба 1967 Dub ЛенфильмSize: 3.17 Gb ( 3 328 166,00 KBytes ) - DVD-5Enabled regions: 1, 2, 3, 4, 5, 6, 7, 8
VTS_01 : Play Length: 01:34:00 Video: PAL 4:3 (720x576) VBR Audio: Russian, AC3, 2/0 (L,R) ch, 256 kbps, Delay 0 mSec

MediaInfo

GeneralComplete name : \День, когда всплыла рыба 1967 Dub Ленфильм\VIDEO_TS\VTS_01_1.VOBFormat : MPEG-PSFile size : 1 024 MiBDuration : 30 min 39 sOverall bit rate mode : VariableOverall bit rate : 4 670 kb/s
VideoID : 224 (0xE0)Format : MPEG VideoFormat version : Version 2Format profile : Main@MainFormat settings : CustomMatrix / BVOPFormat settings, BVOP : YesFormat settings, Matrix : CustomFormat settings, GOP : M=3, N=12Format settings, picture structure : FrameDuration : 30 min 39 sBit rate mode : VariableBit rate : 4 321 kb/sMaximum bit rate : 9 600 kb/sWidth : 720 pixelsHeight : 576 pixelsDisplay aspect ratio : 4:3Frame rate : 25.000 FPSStandard : PALColor space : YUVChroma subsampling : 4:2:0Bit depth : 8 bitsScan type : InterlacedScan order : Top Field FirstCompression mode : LossyBits/(Pixel*Frame) : 0.417Time code of first frame : 00:00:00:00Time code source : Group of pictures headerGOP, Open/Closed : OpenGOP, Open/Closed of first frame : ClosedStream size : 947 MiB (93%)
AudioID : 189 (0xBD)-128 (0x80)Format : AC-3Format/Info : Audio Coding 3Commercial name : Dolby DigitalMuxing mode : DVD-VideoDuration : 30 min 39 sBit rate mode : ConstantBit rate : 256 kb/sChannel(s) : 2 channelsChannel layout : L RSampling rate : 48.0 kHzFrame rate : 31.250 FPS (1536 SPF)Bit depth : 16 bitsCompression mode : LossyStream size : 56.1 MiB (5%)Service kind : Complete Main
Menu


[galltoto.com]_t_5687576.torrent
Торрент: Зарегистрирован ·  [ 2019-02-11 16:52 ] ·  af57416ada3f85369264bdfa7568a95ab2c9c69d

17 KB

Статус: проверено
Скачан: 0 раз
Размер: 3.17 GB
Оценка: 
(Голосов: 0)
Сказали спасибо: 0  Спасибо
Похожие темы
[Профиль]    [ЛС]
Показать сообщения:    
Ответить на тему

Текущее время: Сегодня 00:56

Часовой пояс: GMT + 7



Вы не можете начинать темы
Вы не можете отвечать на сообщения
Вы не можете редактировать свои сообщения
Вы не можете удалять свои сообщения
Вы не можете голосовать в опросах
Вы не можете прикреплять файлы к сообщениям
Вы можете скачивать файлы


Telefonia fissa e mobile | Cum Swallowing Cosplay Whore Elvira Sucks Cock Larkin Love 4k | The fastest way to the job interview EmploymentCare Premium Free PDF English Pages 35 (55 reviews) ‘The fastest way to the job interview’ is a step-by-step booklet that helps you to understand what it takes to land a job interview which ultimately will give you a job. Read more