Чьи уши лучше? (Серикбай Аралбаев) [1987, СССР, мультфильм, кукольный, DVB]

Ответить на тему
Статистика раздачи [Обновить пиров]
Размер:  132 MB   |    Зарегистрирован:  9 дней   |    Скачан:  0 раз

Полного источника не было: Никогда

 
   
 
 
 
Автор Сообщение

galltoto.com

Создавать темы 11-Фев-2019 04:19

[Цитировать]

Чьи уши лучше? Жанр: мультфильм, кукольный
Студия: Казахфильм
Продолжительность: 00:07:41
Год выхода: 1987-Режиссёр: Серикбай Аралбаев-Описание: Рассказ о том, как однажды Зайчонок и Ослик - шаловливые, но симпатичные - затеяли спор о том, чьи уши в самом деле лучше.-Качество: DVB [Ел Арна] (эфир 10.02.2019)
Формат файла: TS
Видео: AVC, 720x576 (16:9) @ 1047x576, 25 fps, ~2088 kbps, 0.201 bit/pixel
Аудио: [RUS] MP2, 48 kHz, 2 ch, 192 kbps

Mediainfo

GeneralID : 1 (0x1)Complete name : H:\Раздачи\Чьи уши лучше (1987) [DVB].tsFormat : MPEG-TSFile size : 132 MiBDuration : 7 min 41 sOverall bit rate mode : VariableOverall bit rate : 2 401 kb/s
VideoID : 68 (0x44)Menu ID : 1 (0x1)Format : AVCFormat/Info : Advanced Video CodecFormat profile : High@L3Format settings : CABAC / 3 Ref FramesFormat settings, CABAC : YesFormat settings, ReFrames : 3 framesFormat settings, GOP : M=4, N=32Codec ID : 27Duration : 7 min 41 sBit rate : 2 088 kb/sWidth : 720 pixelsHeight : 576 pixelsDisplay aspect ratio : 16:9Frame rate : 25.000 FPSStandard : ComponentColor space : YUVChroma subsampling : 4:2:0Bit depth : 8 bitsScan type : InterlacedScan type, store method : Separated fieldsScan order : Top Field FirstBits/(Pixel*Frame) : 0.201Stream size : 115 MiB (87%)Color range : LimitedColor primaries : BT.601 PALTransfer characteristics : BT.470 System B/GMatrix coefficients : BT.470 System B/G
AudioID : 69 (0x45)Menu ID : 1 (0x1)Format : MPEG AudioFormat version : Version 1Format profile : Layer 2Codec ID : 3Duration : 7 min 41 sBit rate mode : ConstantBit rate : 192 kb/sChannel(s) : 2 channelsSampling rate : 48.0 kHzFrame rate : 41.667 FPS (1152 SPF)Compression mode : LossyStream size : 10.6 MiB (8%)Language : English

Скриншоты



[galltoto.com]_t_5687820.torrent
Торрент: Зарегистрирован ·  [ 2019-02-11 04:19 ] ·  be97c03c3eee2e79bbd206c0bba6307837a8e007

11 KB

Статус: проверено
Скачан: 0 раз
Размер: 132 MB
Оценка: 
(Голосов: 0)
Сказали спасибо: 0  Спасибо
Похожие темы
[Профиль]    [ЛС]
Показать сообщения:    
Ответить на тему

Текущее время: Сегодня 14:50

Часовой пояс: GMT + 7



Вы не можете начинать темы
Вы не можете отвечать на сообщения
Вы не можете редактировать свои сообщения
Вы не можете удалять свои сообщения
Вы не можете голосовать в опросах
Вы не можете прикреплять файлы к сообщениям
Вы можете скачивать файлы


Ostracon de Chios | One Piece 92 | Misty (Cantonese) - 謎霧殺機 - Episode 20