Восхитительная Маска / Kekko Kamen / Delicious Mask [OVA] [4 из 4] [Без хардсаба] [JAP+SUB] [1991, комедия, этти, DVDRip]

Ответить на тему
Статистика раздачи [Обновить пиров]
Размер:  1023 MB   |    Зарегистрирован:  13 дней   |    Скачан:  0 раз

Полного источника не было: Никогда

 
   
 
 
 
Автор Сообщение

galltoto.com

Создавать темы 07-Фев-2019 21:58

[Цитировать]

Восхитительная Маска / Kekko Kamen / Delicious Mask / けっこう仮面
Страна: Япония
Год выхода: 1991
Жанр: комедия, этти
Тип: OVA
Продолжительность: 4 эп. по 21 мин.
Режиссер: Кондо Нобухиро
Студия: Nippon Columbia, Studio Signal, Dynamic Planning
Описание: Приключения школьницы Маюми Такахаси, которая учится в наполненной извращенными учителями «Спартанской академии». Преподаватели постоянно унижают детей и подвергают пыткам. Единственным защитником школьников становится загадочная обнаженная супергероиня «Кэкко Камэн», носящая только красную маску с кроличьими ушками, перчатки, шарф и обувь. Отвлекая учителей обнаженными формами, она сражается с ними врукопашную или с помощью нунчаков. Её самым грозным приёмом является Лобковый прыжок: раздвигая ноги в прыжке, Кэкко Камэн парализует противника, а затем падает на него, после чего враг теряет сознание от экстаза.
© wikipedia
Качество: DVDRip
Тип релиза: Без хардсаба
Формат файла: MKV
/Автор рипа: RiP
Видео: AVC, 640x464, 1 619 kb/s, fps, 8 bit
Аудио 1: jpn(int), Vorbis, 128 kb/s, 48.0 kHz, 2 ch
Аудио 2: eng(int), Vorbis, 128 kb/s, 48.0 kHz, 2 ch
Субтитры 1: eng(int), UTF-8, from DVD
Субтитры 2: eng(int), VobSub, from DVD
Субтитры 3: eng(int), UTF-8, from DVD, Screen Text
Субтитры 4: eng(int), VobSub, from DVD, Screen Text
Субтитры 5: rus(ext), ASS, переводчик: Narrru, редактор: AlexMalkavian

Подробные тех. данные

GeneralUnique ID : 236544053332954680839038695195419235438 (0xB1F4BA409711801FB9912B7A4D36546E)Complete name : F:\1\ZR\[RiP] Kekko Kamen\[RiP] Kekko Kamen - 01 [69A5D694].mkvFormat : MatroskaFormat version : Version 1File size : 289 MiBDuration : 21 min 9 sOverall bit rate mode : VariableOverall bit rate : 1 913 kb/sMovie name : Kekko Kamen - 01 [RiP]Encoded date : UTC 2006-01-13 21:17:52Writing application : mkvmerge v1.6.0 ('Ist das so') built on Oct 14 2005 15:22:41Writing library : libebml v0.7.5 + libmatroska v0.7.7
VideoID : 1Format : AVCFormat/Info : Advanced Video CodecFormat profile : High@L4Format settings : CABAC / 16 Ref FramesFormat settings, CABAC : YesFormat settings, RefFrames : 16 framesCodec ID : V_MPEG4/ISO/AVCBit rate : 1 619 kb/sWidth : 640 pixelsHeight : 464 pixelsDisplay aspect ratio : 1.379Frame rate mode : VariableOriginal frame rate : 14.985 FPSColor space : YUVChroma subsampling : 4:2:0Bit depth : 8 bitsScan type : ProgressiveTitle : Kekko Kamen - 01 [RiP]Writing library : x264 core 40 svn-368MLanguage : EnglishDefault : YesForced : No
Audio #1ID : 2Format : VorbisFormat settings, Floor : 1Codec ID : A_VORBISDuration : 21 min 9 sBit rate mode : VariableBit rate : 128 kb/sChannel(s) : 2 channelsSampling rate : 48.0 kHzCompression mode : LossyStream size : 19.4 MiB (7%)Title : Japanese AudioWriting application : Made with BeSweet v1.5b31Writing library : libVorbis 1.1.1/1.1.2 (UTC 2005-03-04)Language : JapaneseDefault : YesForced : NoEncoded_Application/Url : http://DSPguru.doom9.org
Audio #2ID : 3Format : VorbisFormat settings, Floor : 1Codec ID : A_VORBISDuration : 21 min 9 sBit rate mode : VariableBit rate : 128 kb/sChannel(s) : 2 channelsSampling rate : 48.0 kHzCompression mode : LossyStream size : 19.4 MiB (7%)Title : Enlish AudioWriting application : Made with BeSweet v1.5b31Writing library : libVorbis 1.1.1/1.1.2 (UTC 2005-03-04)Language : EnglishDefault : NoForced : NoEncoded_Application/Url : http://DSPguru.doom9.org
Text #1ID : 4Format : UTF-8Codec ID : S_TEXT/UTF8Codec ID/Info : UTF-8 Plain TextTitle : English Subtitles (Text)Language : EnglishDefault : YesForced : No
Text #2ID : 5Format : VobSubMuxing mode : zlibCodec ID : S_VOBSUBCodec ID/Info : Picture based subtitle format used on DVDsTitle : English Subtitles (Pics)Language : EnglishDefault : NoForced : No
Text #3ID : 6Format : UTF-8Codec ID : S_TEXT/UTF8Codec ID/Info : UTF-8 Plain TextTitle : Screen Text (Text)Language : EnglishDefault : NoForced : No
Text #4ID : 7Format : VobSubMuxing mode : zlibCodec ID : S_VOBSUBCodec ID/Info : Picture based subtitle format used on DVDsTitle : Screen Text (Pics)Language : EnglishDefault : NoForced : No
Menu00:00:00.000 : :Introduction00:08:15.300 : :Main Part

Список эпизодов

1. Появление посланницы любви и справедливости!
2. Восхитительная Маска против Мускулистого Монстра
3. Тайна! Легенда о злом андроиде!
4. Кризис! Восхитительная Маска погибает снова!

Скриншоты



[galltoto.com]_t_5683426.torrent
Торрент: Зарегистрирован ·  [ 2019-02-07 21:54 ] ·  608915ebbf7d9fc1479e794235f01250117e3803

21 KB

Статус: проверено
Скачан: 0 раз
Размер: 1023 MB
Оценка: 
(Голосов: 0)
Сказали спасибо: 0  Спасибо
Похожие темы
[Профиль]    [ЛС]
Показать сообщения:    
Ответить на тему

Текущее время: Сегодня 00:55

Часовой пояс: GMT + 7



Вы не можете начинать темы
Вы не можете отвечать на сообщения
Вы не можете редактировать свои сообщения
Вы не можете удалять свои сообщения
Вы не можете голосовать в опросах
Вы не можете прикреплять файлы к сообщениям
Вы можете скачивать файлы


Download | Я худею | Request Movies