[TR24][OF] Niall Horan - Flicker - feat. The RTÉ Concert Orchestra (Live) - 2019 (Pop | Acoustic)

Ответить на тему
Статистика раздачи [Обновить пиров]
Размер:  404 MB   |    Зарегистрирован:  18 дней   |    Скачан:  0 раз

Полного источника не было: Никогда

 
   
 
 
 
Автор Сообщение

galltoto.com

Создавать темы 03-Фев-2019 20:02

[Цитировать]


Niall Horan

Flicker



• Формат файла записи | Источник записи: [TR24][OF]
• Наличие водяных знаков: Нет
• Год издания релиза: 2019
• Жанр: Pop | Acoustic
• Продолжительность: 00:33:29
• Источник, релизер: BNMus
• WEB 7digital
• Формат файла: FLAC (*.flac)
• Тип рипа: tracks
• Разрядность: 24/48
• Формат файла: WAV (flac.ape.wv)
• Количество каналов: 2.0
• Наличие сканов: front

01 - The Tide (Live) (00:03:27)
02 - This Town (Live) (00:03:52)
03 - Too Much To Ask (Live) (00:03:41)
04 - Paper Houses (Live) (00:03:33)
05 - You And Me (Live) (00:03:13)
06 - Seeing Blind (Live) (00:03:07)
07 - Fire Away (Live) (00:04:44)
08 - So Long (Live) (00:03:37)
09 - Flicker (Live) (00:04:13)
-

• Замер динамического диапазона •

foobar2000 1.4.2 beta 2 / Dynamic Range Meter 1.1.1log date: 2019-02-02 19:16:53
--------------------------------------------------------------------------------Analyzed: Niall Horan / Flicker (Live)--------------------------------------------------------------------------------
DR Peak RMS Duration Track--------------------------------------------------------------------------------DR6 0.00 dB -7.74 dB 3:28 01-The Tide (Live)DR7 0.00 dB -10.15 dB 3:52 02-This Town (Live)DR7 0.00 dB -8.88 dB 3:42 03-Too Much To Ask (Live)DR7 0.00 dB -10.11 dB 3:33 04-Paper Houses (Live)DR7 0.00 dB -8.92 dB 3:13 05-You And Me (Live)DR7 0.00 dB -8.77 dB 3:08 06-Seeing Blind (Live)DR7 0.00 dB -10.13 dB 4:44 07-Fire Away (Live)DR7 0.00 dB -9.94 dB 3:37 08-So Long (Live)DR8 0.00 dB -11.66 dB 4:13 09-Flicker (Live)--------------------------------------------------------------------------------
Number of tracks: 9Official DR value: DR7
Samplerate: 48000 HzChannels: 2Bits per sample: 24Bitrate: 1633 kbpsCodec: FLAC================================================================================
-


[galltoto.com]_t_5683852.torrent
Торрент: Зарегистрирован ·  [ 2019-02-03 20:01 ] ·  c30974cbf6d72bc2c0a4def58620dc428e699fe0

17 KB

Статус: проверено
Скачан: 0 раз
Размер: 404 MB
Оценка: 
(Голосов: 0)
Сказали спасибо: 0  Спасибо
Похожие темы
[Профиль]    [ЛС]
Показать сообщения:    
Ответить на тему

Текущее время: Сегодня 23:08

Часовой пояс: GMT + 7



Вы не можете начинать темы
Вы не можете отвечать на сообщения
Вы не можете редактировать свои сообщения
Вы не можете удалять свои сообщения
Вы не можете голосовать в опросах
Вы не можете прикреплять файлы к сообщениям
Вы можете скачивать файлы


Nicholas Hoult | need for speed for PC | #103 - Red Storm 103 01-20-2016