(Score) [CD] Человек - швейцарский нож / Swiss Army Man (by Andy Hull & Robert McDowell) - 2016, FLAC (tracks+.cue), lossless

Ответить на тему
Статистика раздачи [Обновить пиров]
Размер:  279 MB   |    Зарегистрирован:  17 дней   |    Скачан:  0 раз

Полного источника не было: Никогда

 
   
 
 
 
Автор Сообщение

galltoto.com

Создавать темы 03-Фев-2019 13:32

[Цитировать]


Жанр: Score
Композитор: Andy Hull & Robert McDowell (Paul Dano, Daniel Radcliffe)
Год выхода диска: 2016
Страна-производитель диска: Germany, Austria, Switzerland
Издатель (лейбл): Lakeshore Records
Номер по каталогу: LKS 346932
Аудиокодек: FLAC (*.flac)
Тип рипа: tracks
Битрейт аудио: lossless
Продолжительность: 00:47:24
Источник: RED "Bugsy"
Discogs: discogs.com

.
.
.
.

Треклист


01. Intro Song (feat. Paul Dano) (2:26)
02. Where Did You Come From? (feat. Paul Dano) (2:42)
03. Cave Ballad (feat. Paul Dano) (1:46)
04. Hank Drinks (1:28)
05. History Of The Universe (feat. Daniel Radcliffe) (2:52)
06. Fetishes (feat. Daniel Radcliffe) (0:58)
07. When I Think About Mom (feat. Paul Dano and Daniel Radcliffe) (2:59)
08. Don't Overthink Things (0:59)
09. Loved Back To Life (0:30)
10. Cotton Eye Joe (feat. Daniel Radcliffe) (0:58)
11. Jurassic Park (feat. Daniel Radcliffe) (0:54)
12. Talk To Her (feat. Paul Dano and Daniel Radcliffe) (1:02)
13. Love Love (Manny's Song) [feat. Daniel Radcliffe] (0:46)
14. Montage (feat. Paul Dano and Daniel Radcliffe) (3:08)
15. Underwater (2:02)
16. River Rocket (feat. Paul Dano and Daniel Radcliffe) (1:58)
17. Liar (0:57)
18. The Big Raccoon (2:12)
19. Treetops (feat. Daniel Radcliffe) (2:10)
20. Goodbye / Hello (feat. Paul Dano and Daniel Radcliffe) (2:53)
21. Don't Tell Sarah (4:13)
22. Run Down The Mountain (1:33)
23. Finale (2:48)
24. A Better Way (3:09)
Duration: 00:47:24

Лог создания рипа

Exact Audio Copy V1.1 from 23. June 2015
EAC extraction logfile from 6. August 2016, 1:53
Andy Hull & Robert McDowell / Swiss Army Man: Original Motion Picture Soundtrack
Used drive : ASUS DRW-24B1ST c Adapter: 1 ID: 0
Read mode : SecureUtilize accurate stream : YesDefeat audio cache : YesMake use of C2 pointers : No
Read offset correction : 6Overread into Lead-In and Lead-Out : NoFill up missing offset samples with silence : YesDelete leading and trailing silent blocks : NoNull samples used in CRC calculations : YesUsed interface : Native Win32 interface for Win NT & 2000Gap handling : Appended to previous track
Used output format : User Defined EncoderSelected bitrate : 1024 kBit/sQuality : HighAdd ID3 tag : NoCommand line compressor : E:\Program Files\Exact Audio Copy\Flac\flac.exeAdditional command line options : -8 -e -V -T "ARTIST=%artist%" -T "TITLE=%title%" -T "ALBUM=%albumtitle%" -T "DATE=%year%" -T "TRACKNUMBER=%tracknr%" -T "GENRE=%genre%" -T "PERFORMER=%albuminterpret%" -T "COMPOSER=%composer%" %haslyrics%--tag-from-file=LYRICS="%lyricsfile%"%haslyrics% -T "ALBUMARTIST=%albumartist%" -T "DISCNUMBER=%cdnumber%" -T "TOTALDISCS=%totalcds%" -T "TOTALTRACKS=%numtracks%" -T "COMMENT=%comment%" %source% -o %dest%
TOC of the extracted CD
Track | Start | Length | Start sector | End sector --------------------------------------------------------- 1 | 0:00.42 | 2:26.24 | 42 | 11015 2 | 2:26.66 | 2:41.74 | 11016 | 23164 3 | 5:08.65 | 1:45.44 | 23165 | 31083 4 | 6:54.34 | 1:27.54 | 31084 | 37662 5 | 8:22.13 | 2:52.02 | 37663 | 50564 6 | 11:14.15 | 0:57.47 | 50565 | 54886 7 | 12:11.62 | 2:59.32 | 54887 | 68343 8 | 15:11.19 | 0:58.52 | 68344 | 72745 9 | 16:09.71 | 0:29.68 | 72746 | 74988 10 | 16:39.64 | 0:58.07 | 74989 | 79345 11 | 17:37.71 | 0:54.10 | 79346 | 83405 12 | 18:32.06 | 1:02.06 | 83406 | 88061 13 | 19:34.12 | 0:46.23 | 88062 | 91534 14 | 20:20.35 | 3:07.72 | 91535 | 105631 15 | 23:28.32 | 2:02.16 | 105632 | 114797 16 | 25:30.48 | 1:58.12 | 114798 | 123659 17 | 27:28.60 | 0:57.32 | 123660 | 127966 18 | 28:26.17 | 2:12.18 | 127967 | 137884 19 | 30:38.35 | 2:09.70 | 137885 | 147629 20 | 32:48.30 | 2:52.51 | 147630 | 160580 21 | 35:41.06 | 4:12.70 | 160581 | 179550 22 | 39:54.01 | 1:33.22 | 179551 | 186547 23 | 41:27.23 | 2:48.15 | 186548 | 199162 24 | 44:15.38 | 3:08.61 | 199163 | 213323
Track 1
Filename F:\Audio\Audio Seeding\Andy Hull & Robert McDowell - Swiss Army Man (2016) [FLAC]\01 - Intro Song (feat. Paul Dano).wav
Pre-gap length 0:00:02.56
Peak level 97.6 % Extraction speed 4.4 X Track quality 100.0 % Test CRC 00E85B95 Copy CRC 00E85B95 Track not present in AccurateRip database Copy OK
Track 2
Filename F:\Audio\Audio Seeding\Andy Hull & Robert McDowell - Swiss Army Man (2016) [FLAC]\02 - Where Did You Come From (feat. Paul Dano).wav
Peak level 97.2 % Extraction speed 3.6 X Track quality 99.9 % Test CRC A4BD330D Copy CRC A4BD330D Track not present in AccurateRip database Copy OK
Track 3
Filename F:\Audio\Audio Seeding\Andy Hull & Robert McDowell - Swiss Army Man (2016) [FLAC]\03 - Cave Ballad (feat. Paul Dano).wav
Peak level 97.6 % Extraction speed 3.3 X Track quality 99.8 % Test CRC 214CED8C Copy CRC 214CED8C Track not present in AccurateRip database Copy OK
Track 4
Filename F:\Audio\Audio Seeding\Andy Hull & Robert McDowell - Swiss Army Man (2016) [FLAC]\04 - Hank Drinks.wav
Peak level 97.6 % Extraction speed 4.5 X Track quality 100.0 % Test CRC 00B0B1FC Copy CRC 00B0B1FC Track not present in AccurateRip database Copy OK
Track 5
Filename F:\Audio\Audio Seeding\Andy Hull & Robert McDowell - Swiss Army Man (2016) [FLAC]\05 - History Of The Universe (feat. Daniel Radcliffe).wav
Peak level 97.5 % Extraction speed 5.7 X Track quality 100.0 % Test CRC 9F6AD125 Copy CRC 9F6AD125 Track not present in AccurateRip database Copy OK
Track 6
Filename F:\Audio\Audio Seeding\Andy Hull & Robert McDowell - Swiss Army Man (2016) [FLAC]\06 - Fetishes (feat. Daniel Radcliffe).wav
Peak level 97.6 % Extraction speed 4.3 X Track quality 100.0 % Test CRC 7AC3A628 Copy CRC 7AC3A628 Track not present in AccurateRip database Copy OK
Track 7
Filename F:\Audio\Audio Seeding\Andy Hull & Robert McDowell - Swiss Army Man (2016) [FLAC]\07 - When I Think About Mom (feat. Paul Dano and Daniel Radcliffe).wav
Peak level 96.3 % Extraction speed 6.1 X Track quality 100.0 % Test CRC A0EC36FF Copy CRC A0EC36FF Track not present in AccurateRip database Copy OK
Track 8
Filename F:\Audio\Audio Seeding\Andy Hull & Robert McDowell - Swiss Army Man (2016) [FLAC]\08 - Don't Overthink Things.wav
Peak level 97.6 % Extraction speed 4.6 X Track quality 100.0 % Test CRC 4936B4A4 Copy CRC 4936B4A4 Track not present in AccurateRip database Copy OK
Track 9
Filename F:\Audio\Audio Seeding\Andy Hull & Robert McDowell - Swiss Army Man (2016) [FLAC]\09 - Loved Back To Life.wav
Peak level 96.3 % Extraction speed 3.2 X Track quality 100.0 % Test CRC 3AF509CF Copy CRC 3AF509CF Track not present in AccurateRip database Copy OK
Track 10
Filename F:\Audio\Audio Seeding\Andy Hull & Robert McDowell - Swiss Army Man (2016) [FLAC]\10 - Cotton Eye Joe (feat. Daniel Radcliffe).wav
Peak level 97.6 % Extraction speed 2.8 X Track quality 99.8 % Test CRC 42D6C608 Copy CRC 42D6C608 Track not present in AccurateRip database Copy OK
Track 11
Filename F:\Audio\Audio Seeding\Andy Hull & Robert McDowell - Swiss Army Man (2016) [FLAC]\11 - Jurassic Park (feat. Daniel Radcliffe).wav
Peak level 97.6 % Extraction speed 4.4 X Track quality 100.0 % Test CRC A8F5F06F Copy CRC A8F5F06F Track not present in AccurateRip database Copy OK
Track 12
Filename F:\Audio\Audio Seeding\Andy Hull & Robert McDowell - Swiss Army Man (2016) [FLAC]\12 - Talk To Her (feat. Paul Dano and Daniel Radcliffe).wav
Peak level 97.6 % Extraction speed 3.0 X Track quality 99.8 % Test CRC B15B8552 Copy CRC B15B8552 Track not present in AccurateRip database Copy OK
Track 13
Filename F:\Audio\Audio Seeding\Andy Hull & Robert McDowell - Swiss Army Man (2016) [FLAC]\13 - Love Love (Manny's Song) [feat. Daniel Radcliffe].wav
Peak level 68.6 % Extraction speed 4.5 X Track quality 100.0 % Test CRC 77AB0DF7 Copy CRC 77AB0DF7 Track not present in AccurateRip database Copy OK
Track 14
Filename F:\Audio\Audio Seeding\Andy Hull & Robert McDowell - Swiss Army Man (2016) [FLAC]\14 - Montage (feat. Paul Dano and Daniel Radcliffe).wav
Peak level 97.6 % Extraction speed 6.9 X Track quality 100.0 % Test CRC EEABA7CC Copy CRC EEABA7CC Track not present in AccurateRip database Copy OK
Track 15
Filename F:\Audio\Audio Seeding\Andy Hull & Robert McDowell - Swiss Army Man (2016) [FLAC]\15 - Underwater.wav
Peak level 53.8 % Extraction speed 6.6 X Track quality 100.0 % Test CRC 46F44A13 Copy CRC 46F44A13 Track not present in AccurateRip database Copy OK
Track 16
Filename F:\Audio\Audio Seeding\Andy Hull & Robert McDowell - Swiss Army Man (2016) [FLAC]\16 - River Rocket (feat. Paul Dano and Daniel Radcliffe).wav
Peak level 97.4 % Extraction speed 4.8 X Track quality 99.9 % Test CRC 46E2A0BB Copy CRC 46E2A0BB Track not present in AccurateRip database Copy OK
Track 17
Filename F:\Audio\Audio Seeding\Andy Hull & Robert McDowell - Swiss Army Man (2016) [FLAC]\17 - Liar.wav
Pre-gap length 0:00:00.26
Peak level 95.2 % Extraction speed 3.2 X Track quality 99.8 % Test CRC 80D28348 Copy CRC 80D28348 Track not present in AccurateRip database Copy OK
Track 18
Filename F:\Audio\Audio Seeding\Andy Hull & Robert McDowell - Swiss Army Man (2016) [FLAC]\18 - The Big Raccoon.wav
Peak level 97.6 % Extraction speed 7.1 X Track quality 100.0 % Test CRC 89E2EFC3 Copy CRC 89E2EFC3 Track not present in AccurateRip database Copy OK
Track 19
Filename F:\Audio\Audio Seeding\Andy Hull & Robert McDowell - Swiss Army Man (2016) [FLAC]\19 - Treetops (feat. Daniel Radcliffe).wav
Peak level 97.6 % Extraction speed 7.2 X Track quality 100.0 % Test CRC BE9C3D48 Copy CRC BE9C3D48 Track not present in AccurateRip database Copy OK
Track 20
Filename F:\Audio\Audio Seeding\Andy Hull & Robert McDowell - Swiss Army Man (2016) [FLAC]\20 - Goodbye , Hello (feat. Paul Dano and Daniel Radcliffe).wav
Peak level 97.6 % Extraction speed 7.9 X Track quality 100.0 % Test CRC 4120C365 Copy CRC 4120C365 Track not present in AccurateRip database Copy OK
Track 21
Filename F:\Audio\Audio Seeding\Andy Hull & Robert McDowell - Swiss Army Man (2016) [FLAC]\21 - Don't Tell Sarah.wav
Peak level 84.3 % Extraction speed 7.1 X Track quality 99.9 % Test CRC 975A5B7D Copy CRC 975A5B7D Track not present in AccurateRip database Copy OK
Track 22
Filename F:\Audio\Audio Seeding\Andy Hull & Robert McDowell - Swiss Army Man (2016) [FLAC]\22 - Run Down The Mountain.wav
Peak level 97.6 % Extraction speed 4.8 X Track quality 99.8 % Test CRC FA8EC649 Copy CRC FA8EC649 Track not present in AccurateRip database Copy OK
Track 23
Filename F:\Audio\Audio Seeding\Andy Hull & Robert McDowell - Swiss Army Man (2016) [FLAC]\23 - Finale.wav
Peak level 97.6 % Extraction speed 8.4 X Track quality 100.0 % Test CRC 60F2E260 Copy CRC 60F2E260 Track not present in AccurateRip database Copy OK
Track 24
Filename F:\Audio\Audio Seeding\Andy Hull & Robert McDowell - Swiss Army Man (2016) [FLAC]\24 - A Better Way.wav
Peak level 97.6 % Extraction speed 8.8 X Track quality 100.0 % Test CRC 14B1FC43 Copy CRC 14B1FC43 Track not present in AccurateRip database Copy OK
None of the tracks are present in the AccurateRip database
No errors occurred
End of status report
---- CUETools DB Plugin V2.1.6
[CTDB TOCID: clxIXhhdS0CZ5gT68hZB3KgIbQY-] foundSubmit result: clxIXhhdS0CZ5gT68hZB3KgIbQY- has been confirmedTrack | CTDB Status 1 | (2/2) Accurately ripped 2 | (2/2) Accurately ripped 3 | (2/2) Accurately ripped 4 | (2/2) Accurately ripped 5 | (2/2) Accurately ripped 6 | (2/2) Accurately ripped 7 | (2/2) Accurately ripped 8 | (2/2) Accurately ripped 9 | (2/2) Accurately ripped 10 | (2/2) Accurately ripped 11 | (2/2) Accurately ripped 12 | (2/2) Accurately ripped 13 | (2/2) Accurately ripped 14 | (2/2) Accurately ripped 15 | (2/2) Accurately ripped 16 | (2/2) Accurately ripped 17 | (2/2) Accurately ripped 18 | (2/2) Accurately ripped 19 | (2/2) Accurately ripped 20 | (2/2) Accurately ripped 21 | (2/2) Accurately ripped 22 | (2/2) Accurately ripped 23 | (2/2) Accurately ripped 24 | (2/2) Accurately ripped
==== Log checksum C89B95D70B30860FE4940AE8E34290A0694A8EB6338554F10701802441442DFA ====

Содержание индексной карты (.CUE)

REM GENRE SoundtrackREM DATE 2016REM DISCID 280B1C18REM COMMENT "ExactAudioCopy v1.1"PERFORMER "Andy Hull & Robert McDowell"TITLE "Swiss Army Man: Original Motion Picture Soundtrack"FILE "01 - Intro Song (feat. Paul Dano).wav" WAVE TRACK 01 AUDIO TITLE "Intro Song (feat. Paul Dano)" PERFORMER "Andy Hull & Robert McDowell" PREGAP 00:00:42 INDEX 01 00:00:00FILE "02 - Where Did You Come From (feat. Paul Dano).wav" WAVE TRACK 02 AUDIO TITLE "Where Did You Come From? (feat. Paul Dano)" PERFORMER "Andy Hull & Robert McDowell" INDEX 01 00:00:00FILE "03 - Cave Ballad (feat. Paul Dano).wav" WAVE TRACK 03 AUDIO TITLE "Cave Ballad (feat. Paul Dano)" PERFORMER "Andy Hull & Robert McDowell" INDEX 01 00:00:00FILE "04 - Hank Drinks.wav" WAVE TRACK 04 AUDIO TITLE "Hank Drinks" PERFORMER "Andy Hull & Robert McDowell" INDEX 01 00:00:00FILE "05 - History Of The Universe (feat. Daniel Radcliffe).wav" WAVE TRACK 05 AUDIO TITLE "History Of The Universe (feat. Daniel Radcliffe)" PERFORMER "Andy Hull & Robert McDowell" INDEX 01 00:00:00FILE "06 - Fetishes (feat. Daniel Radcliffe).wav" WAVE TRACK 06 AUDIO TITLE "Fetishes (feat. Daniel Radcliffe)" PERFORMER "Andy Hull & Robert McDowell" INDEX 01 00:00:00FILE "07 - When I Think About Mom (feat. Paul Dano and Daniel Radcliffe).wav" WAVE TRACK 07 AUDIO TITLE "When I Think About Mom (feat. Paul Dano and Daniel Radcliffe)" PERFORMER "Andy Hull & Robert McDowell" INDEX 01 00:00:00FILE "08 - Don't Overthink Things.wav" WAVE TRACK 08 AUDIO TITLE "Don't Overthink Things" PERFORMER "Andy Hull & Robert McDowell" INDEX 01 00:00:00FILE "09 - Loved Back To Life.wav" WAVE TRACK 09 AUDIO TITLE "Loved Back To Life" PERFORMER "Andy Hull & Robert McDowell" INDEX 01 00:00:00FILE "10 - Cotton Eye Joe (feat. Daniel Radcliffe).wav" WAVE TRACK 10 AUDIO TITLE "Cotton Eye Joe (feat. Daniel Radcliffe)" PERFORMER "Andy Hull & Robert McDowell" INDEX 01 00:00:00FILE "11 - Jurassic Park (feat. Daniel Radcliffe).wav" WAVE TRACK 11 AUDIO TITLE "Jurassic Park (feat. Daniel Radcliffe)" PERFORMER "Andy Hull & Robert McDowell" INDEX 01 00:00:00FILE "12 - Talk To Her (feat. Paul Dano and Daniel Radcliffe).wav" WAVE TRACK 12 AUDIO TITLE "Talk To Her (feat. Paul Dano and Daniel Radcliffe)" PERFORMER "Andy Hull & Robert McDowell" INDEX 01 00:00:00FILE "13 - Love Love (Manny's Song) [feat. Daniel Radcliffe].wav" WAVE TRACK 13 AUDIO TITLE "Love Love (Manny's Song) [feat. Daniel Radcliffe]" PERFORMER "Andy Hull & Robert McDowell" INDEX 01 00:00:00FILE "14 - Montage (feat. Paul Dano and Daniel Radcliffe).wav" WAVE TRACK 14 AUDIO TITLE "Montage (feat. Paul Dano and Daniel Radcliffe)" PERFORMER "Andy Hull & Robert McDowell" INDEX 01 00:00:00FILE "15 - Underwater.wav" WAVE TRACK 15 AUDIO TITLE "Underwater" PERFORMER "Andy Hull & Robert McDowell" INDEX 01 00:00:00FILE "16 - River Rocket (feat. Paul Dano and Daniel Radcliffe).wav" WAVE TRACK 16 AUDIO TITLE "River Rocket (feat. Paul Dano and Daniel Radcliffe)" PERFORMER "Andy Hull & Robert McDowell" INDEX 01 00:00:00 TRACK 17 AUDIO TITLE "Liar" PERFORMER "Andy Hull & Robert McDowell" INDEX 00 01:57:67FILE "17 - Liar.wav" WAVE INDEX 01 00:00:00FILE "18 - The Big Raccoon.wav" WAVE TRACK 18 AUDIO TITLE "The Big Raccoon" PERFORMER "Andy Hull & Robert McDowell" INDEX 01 00:00:00FILE "19 - Treetops (feat. Daniel Radcliffe).wav" WAVE TRACK 19 AUDIO TITLE "Treetops (feat. Daniel Radcliffe)" PERFORMER "Andy Hull & Robert McDowell" INDEX 01 00:00:00FILE "20 - Goodbye , Hello (feat. Paul Dano and Daniel Radcliffe).wav" WAVE TRACK 20 AUDIO TITLE "Goodbye / Hello (feat. Paul Dano and Daniel Radcliffe)" PERFORMER "Andy Hull & Robert McDowell" INDEX 01 00:00:00FILE "21 - Don't Tell Sarah.wav" WAVE TRACK 21 AUDIO TITLE "Don't Tell Sarah" PERFORMER "Andy Hull & Robert McDowell" INDEX 01 00:00:00FILE "22 - Run Down The Mountain.wav" WAVE TRACK 22 AUDIO TITLE "Run Down The Mountain" PERFORMER "Andy Hull & Robert McDowell" INDEX 01 00:00:00FILE "23 - Finale.wav" WAVE TRACK 23 AUDIO TITLE "Finale" PERFORMER "Andy Hull & Robert McDowell" INDEX 01 00:00:00FILE "24 - A Better Way.wav" WAVE TRACK 24 AUDIO TITLE "A Better Way" PERFORMER "Andy Hull & Robert McDowell" INDEX 01 00:00:00


[galltoto.com]_t_5683754.torrent
Торрент: Зарегистрирован ·  [ 2019-02-03 13:32 ] ·  5efec3d57ef81de9218b55b1e89a5ff222264ecd

4 KB

Статус: проверено
Скачан: 0 раз
Размер: 279 MB
Оценка: 
(Голосов: 0)
Сказали спасибо: 0  Спасибо
Похожие темы
[Профиль]    [ЛС]
Показать сообщения:    
Ответить на тему

Текущее время: Сегодня 00:46

Часовой пояс: GMT + 7



Вы не можете начинать темы
Вы не можете отвечать на сообщения
Вы не можете редактировать свои сообщения
Вы не можете удалять свои сообщения
Вы не можете голосовать в опросах
Вы не можете прикреплять файлы к сообщениям
Вы можете скачивать файлы


Exciting1467 | Star Wars Rebels | Watch now!