(UK Garage, Garage House, Acid Jazz, House, R&B) [CDS] Deni Hines - It\'s Alright (CD2) - 1998, FLAC (tracks+.cue), lossless

Ответить на тему
Статистика раздачи [Обновить пиров]
Размер:  106 MB   |    Зарегистрирован:  8 дней   |    Скачан:  0 раз

Полного источника не было: Никогда

 
   
 
 
 
Автор Сообщение

galltoto.com

Создавать темы 07-Янв-2019 15:53

[Цитировать]

Deni Hines / It's Alright (CD2)
Жанр: UK Garage, Garage House, Acid Jazz, House, R&B
Носитель: CDS
Страна-производитель диска (релиза): UK
Год издания: 1998
Издатель (лейбл): Mushroom ‎
Номер по каталогу: MUSH36CDSX
Страна исполнителя (группы): Australia
Аудиокодек: FLAC (*.flac)
Тип рипа: tracks+.cue
Битрейт аудио: lossless
Продолжительность: 16:01
Источник (релизер): Собственный рип
Наличие сканов в содержимом раздачи: нет
Треклист:
01. It's Alright (Radio Edit) [3:39]
02. It's Alright (Booker T's Vocal Lick) [5:51]
03. It's Alright (Sixty Browns Live 'n' Kicking Mix) [6:33]

Лог создания рипа

Exact Audio Copy V1.3 from 2. September 2016
EAC extraction logfile from 2. January 2019, 12:34
Deni Hines / It's Alright (CD2)
Used drive : Optiarc DVD RW AD-7710H Adapter: 1 ID: 0
Read mode : SecureUtilize accurate stream : YesDefeat audio cache : YesMake use of C2 pointers : No
Read offset correction : 48Overread into Lead-In and Lead-Out : NoFill up missing offset samples with silence : YesDelete leading and trailing silent blocks : NoNull samples used in CRC calculations : YesUsed interface : Native Win32 interface for Win NT & 2000Gap handling : Appended to previous track
Used output format : User Defined EncoderSelected bitrate : 1024 kBit/sQuality : HighAdd ID3 tag : NoCommand line compressor : C:\Program Files (x86)\Exact Audio Copy\FLAC\FLAC.EXEAdditional command line options : -6 -V -T "ARTIST=%artist%" -T "TITLE=%title%" -T "ALBUM=%albumtitle%" -T "DATE=%year%" -T "TRACKNUMBER=%tracknr%" -T "GENRE=%genre%" -T "COMMENT=%comment%" -T "BAND=%albuminterpret%" -T "ALBUMARTIST=%albuminterpret%" -T "COMPOSER=%composer%" %haslyrics%--tag-from-file=LYRICS="%lyricsfile%"%haslyrics% -T "DISCNUMBER=%cdnumber%" -T "TOTALDISCS=%totalcds%" -T "TOTALTRACKS=%numtracks%" %hascover%--picture="%coverfile%"%hascover% %source% -o %dest%
TOC of the extracted CD
Track | Start | Length | Start sector | End sector --------------------------------------------------------- 1 | 0:00.00 | 3:38.42 | 0 | 16391 2 | 3:38.42 | 5:50.55 | 16392 | 42696 3 | 9:29.22 | 6:32.48 | 42697 | 72144
Track 1
Filename C:\Users\José e Rosaura\Desktop\Deni Hines - It's Alright (CD2)\01. It's Alright (Radio Edit).wav
Pre-gap length 0:00:02.00
Peak level 98.8 % Extraction speed 2.7 X Track quality 100.0 % Test CRC 7B72C00F Copy CRC 7B72C00F Track not present in AccurateRip database Copy OK
Track 2
Filename C:\Users\José e Rosaura\Desktop\Deni Hines - It's Alright (CD2)\02. It's Alright (Booker T's Vocal Lick).wav
Pre-gap length 0:00:02.47
Peak level 98.8 % Extraction speed 2.8 X Track quality 99.9 % Test CRC 9C0B54F8 Copy CRC 9C0B54F8 Track not present in AccurateRip database Copy OK
Track 3
Filename C:\Users\José e Rosaura\Desktop\Deni Hines - It's Alright (CD2)\03. It's Alright (Sixty Browns Live 'n' Kicking Mix).wav
Pre-gap length 0:00:02.44
Peak level 98.8 % Extraction speed 2.0 X Track quality 99.8 % Test CRC B589CD23 Copy CRC 8839266F Track not present in AccurateRip database Copy OK
None of the tracks are present in the AccurateRip database
No errors occurred
End of status report
---- CUETools DB Plugin V2.1.6
[CTDB TOCID: BaTy1yvd4L.x9QUlqUwqIHgJaXY-] disk not present in databaseSubmit result: insufficient quality
==== Log checksum 31A9287143E1E12476CEBC453163AD53034AC9198E3638EAC1CCD1B06AB53F98 ====

Содержание индексной карты (.CUE)

REM DATE 1998REM DISCID 1303C103REM COMMENT "ExactAudioCopy v1.3"PERFORMER "Deni Hines"TITLE "It's Alright (CD2)"REM COMPOSER ""FILE "01. It's Alright (Radio Edit).wav" WAVE TRACK 01 AUDIO TITLE "It's Alright (Radio Edit)" PERFORMER "Deni Hines" REM COMPOSER "" INDEX 01 00:00:00 TRACK 02 AUDIO TITLE "It's Alright (Booker T's Vocal Lick)" PERFORMER "Deni Hines" REM COMPOSER "" INDEX 00 03:35:70FILE "02. It's Alright (Booker T's Vocal Lick).wav" WAVE INDEX 01 00:00:00 TRACK 03 AUDIO TITLE "It's Alright (Sixty Browns Live 'n' Kicking Mix)" PERFORMER "Deni Hines" REM COMPOSER "" INDEX 00 05:48:10FILE "03. It's Alright (Sixty Browns Live 'n' Kicking Mix).wav" WAVE INDEX 01 00:00:00

Лог проверки качества

-----------------------
DON'T MODIFY THIS FILE
-----------------------
PERFORMER: auCDtect Task Manager, ver. 1.6.0 RC1 build 1.6.0.1Copyright (c) 2008-2010 y-soft. All rights reservedhttp://y-soft.org
ANALYZER: auCDtect: CD records authenticity detector, version 0.8.2Copyright (c) 2004 Oleg Berngardt. All rights reserved.Copyright (c) 2004 Alexander Djourik. All rights reserved.
FILE: 03. It's Alright (Sixty Browns Live 'n' Kicking Mix).flac Size: 41599786 Hash: 0A9B8D206681466DFCC3BE16149D656C Accuracy: -m0 Conclusion: CDDA 100% Signature: 8E6FDE3E59E004F3C4102C32822D7DE50E5A1702FILE: 02. It's Alright (Booker T's Vocal Lick).flac Size: 41331137 Hash: F8555C8CB6881773200A5F83B782E0BC Accuracy: -m0 Conclusion: CDDA 100% Signature: 8C162B07B9143024412FBDCA0728EA5A8582A4D9FILE: 01. It's Alright (Radio Edit).flac Size: 28512760 Hash: 94EFDC76C338673719EB2FF7FD071338 Accuracy: -m0 Conclusion: CDDA 100% Signature: 28F595203FEFDFC5BC2EC354178B6017994AEDFB


[galltoto.com]_t_5668618.torrent
Торрент: Зарегистрирован ·  [ 2019-01-07 15:53 ] ·  19d0e2c5b7d2e3a23a9374e263b8e61b974ddfb5

17 KB

Статус: проверено
Скачан: 0 раз
Размер: 106 MB
Оценка: 
(Голосов: 0)
Сказали спасибо: 0  Спасибо
Похожие темы
[Профиль]    [ЛС]
Показать сообщения:    
Ответить на тему

Текущее время: Сегодня 13:22

Часовой пояс: GMT + 7



Вы не можете начинать темы
Вы не можете отвечать на сообщения
Вы не можете редактировать свои сообщения
Вы не можете удалять свои сообщения
Вы не можете голосовать в опросах
Вы не можете прикреплять файлы к сообщениям
Вы можете скачивать файлы


Скачать и Смотреть | Hand Tools | IMDb: 8 S1E13 Salem - Season 1