(Downtempo, Psychill, Ethno-Lounge, Ethno-chillout, Ambient) [WEB\\CD] Koan - Discography (54 releases) - 2005-2017, FLAC (tracks, tracks+.cue), lossless

Ответить на тему
Статистика раздачи [Обновить пиров]
Размер:  28.38 GB   |    Зарегистрирован:  11 дней   |    Скачан:  0 раз

Полного источника не было: Никогда

 
   
 
 
 
Автор Сообщение

galltoto.com

Создавать темы 07-Янв-2019 12:22

[Цитировать]

Koan- -Жанр: Ambient, Psychill, Ethno-Lounge, Ethno-chillout, Downtempo • Страна: Россия • Годы издания: 2005-2016 • Продолжительность: 02:18:32:02
Аудиокодек: FLAC • Тип рипа: tracks, tracks+.cue • Битрейт аудио: lossless
Источник: Torrentc \ Андрамедон (beatport, Bandcamp, psy), вата, вафля \ red
-02 12 2018 добавлены релизы 18го года-

О группе

Московский дуэт Koan был создан в начале 90-х совместными усилиями продюсерского тандема Roeth & Grey.
Daniel Roeth начинал свою деятельность как независимый DJ, играющий винил на закрытых вечеринках формата тяжёлого техно и эйсид-транса. После того, как к нему в руки попала первая программа-трекер Daniel временно приостанавливает диджейскую деятельность и переключает всё своё внимание на композиторское ремесло. Его участие в проекте Koan — приоритетное. Являясь генератором музыкальных идей, он блестяще совмещает запись новых композиций с ключевыми выступлениями на престижных мероприятиях по всему миру. Параллельно с этим Daniel занимается написанием музыки для компьютерных видеоигр и музыкальными коллажами для российского документального кино (ВГИК).
William Grey долгое время программировал трекерные модули на основе компьютеров Atari-XE, Commodore-64 и PC, а также работал в качестве демо-сценера. Мультиформатный специалист по компьютерной и семплерной музыке. Саунд-дизайнер и музыкальный критик с широчайшим кругозором. На данный момент William — арт-директор и исполнительный продюсер Koan.
Познакомившись в 1993-м году Roeth & Grey начали свою совместную работу, отталкиваясь от семплерной субкультуры и элементов транс-музыки. Чётко разделив свои обязанности внутри студийного пространства они основали три уникальных проекта: Koan (этно-чилаут / эмбиент), Vacuum Stalkers (прогрессив-транс) и Fatum Sci-Fi (шумовой полуэкспериментальный IDM).
За 15 лет упорной и кропотливой работы шлифовалось и формировалось звучание, оттачивались техники исполнения, менялось звуковое и компьютерное оборудование. Проекты набирали силу и завоёвывали сердца новых слушателей.
Koan — самый успешный и известный проект Roeth & Grey. Это один из ведущих исполнителей отечественной chillout-Сцены, широко известный за пределами России. Участник многотысячных международных фестивалей и престижных мероприятий (Ethno-Life (Россия), Transylvania Calling (Румыния), Underwater Overground (Хорватия), Fullmoon (Германия). Загадочная фигура, всегда стоящая в авангарде российской электроники. За плечами Koan огромный опыт работы со знаменитыми европейскими издательствами (Iboga Records (Дания) и Blue Tunes Recordings (Германия). Дуэту присущи концептуализм, новаторство и отменный вкус. Каждый релиз проекта пропитан гремучей смесью этно-электроники и неожиданным сочетанием различных музыкальных культур. Основная визитная карточка дуэта — высочайший технологический уровень исполнения и безукоризненное качество звука.

Состав

Daniel Roeth (Roman Alexeev) & William Grey (Vladimir Sedov)
--

2005: When Invisible Becomes Visible EP (WEB)

Жанр: PsyChill
Страна-производитель диска: Russia
Год выхода: 2005
Дата выхода оригинального издания: 15 Dec 2005
Тип издания: WEB, EP, free
Лейбл: Otium
Номер по каталогу: OTR024
Аудиокодек: FLAC (*.flac)
Битрейт аудио: lossless
Тип рипа: tracks
Продолжительность: 00:17:53
Наличие сканов в содержимом раздачи: Да (Front)
Треклист:
01 - Nasca Lines (10:35)
02 - Mai's Crystal Bridge (07:18)
http://otium.ru/releases/?id=32#.VqzqMWNZZUQ

Лог проверки качества

AUDIOCHECKER v2.0 beta (build 457) - by Dester - opdester@freemail.hu~~~~~~~~~~~~~~~~~~~~~~~~~~~~~~~~~~-=== DO NOT EDIT THIS FILE! ===-
Path: ...\Koan_-_When_Invisible_Becomes_Visible-2005
001 -=- 01_-_Koan_-_Nasca_Lines.flac -=- CDDA (100%)002 -=- 02_-_Koan_-_Mai's_Crystal_Bridge.flac -=- CDDA (100%)
Summary 100,00% CDDA
264209796

2006: Two Moon Butterflies

Жанр: Downtempo, Ambient
Страна-производитель диска: Russia
Год выхода: 2006
Дата выхода оригинального издания: 02 Aug 2006
Тип издания: CD, Album
Лейбл: Trancexplorer
Номер по каталогу: TX 06-01 CD
Аудиокодек: FLAC (*.flac)
Битрейт аудио: lossless
Тип рипа: tracks+.cue
Продолжительность: 01:14:29
Наличие сканов в содержимом раздачи: Да
Треклист:
01 - Together With Mai On Fourth Heaven (05:41)
02 - Geisha Secrets (07:21)
03 - Pearl Island (05:41)
04 - One Day In Winter Garden (07:35)
05 - Lady Of The Coco Flower (08:49)
06 - Sakura (08:02)
07 - Ghosts In The Pyramids (05:33)
08 - Sweet Dream (06:12)
09 - Girl From Heavens (05:21)
10 - Two Moon Butterflies (07:00)
11 - First Love (07:14)

Лог создания рипа

Exact Audio Copy V1.0 beta 3 from 29. August 2011
Отчёт EAC об извлечении, выполненном 9. марта 2012, 23:27
Koan / Two Moon Butterflies
Дисковод: Optiarc DVD RW AD-7260S Adapter: 0 ID: 2
Режим чтения : ДостоверностьИспользование точного потока : ДаОтключение кэша аудио : ДаИспользование указателей C2 : Нет
Коррекция смещения при чтении : 48Способность читать области Lead-in и Lead-out : НетЗаполнение пропущенных сэмплов тишиной : ДаУдаление блоков с тишиной в начале и конце : НетПри вычислениях CRC использовались нулевые сэмплы : ДаИнтерфейс : Встроенный Win32-интерфейс для Win NT/2000Обработка зазоров : Добавлено к предыдущему треку
Выходной формат : Пользовательский кодировщикВыбранный битрейт : 768 kBit/sКачество : ВысокийДобавление ID3-тега : НетУтилита сжатия : C:\Program Files (x86)\Exact Audio Copy\FLAC\FLAC.EXEДополнительные параметры : -6 -V -T "ARTIST=%artist%" -T "TITLE=%title%" -T "ALBUM=%albumtitle%" -T "DATE=%year%" -T "TRACKNUMBER=%tracknr%" -T "GENRE=%genre%" -T "COMMENT=%comment%" -T "BAND=%albuminterpret%" -T "ALBUMARTIST=%albuminterpret%" -T "COMPOSER=%composer%" %haslyrics%--tag-from-file=LYRICS="%lyricsfile%"%haslyrics% -T "DISCNUMBER=%cdnumber%" -T "TOTALDISCS=%totalcds%" -T "TOTALTRACKS=%numtracks%" %hascover%--picture="%coverfile%"%hascover% %source% -o %dest%
TOC извлечённого CD
Трек | Старт | Длительность | Начальный сектор | Конечный сектор --------------------------------------------------------------------- 1 | 0:00.00 | 5:40.41 | 0 | 25540 2 | 5:40.41 | 7:20.41 | 25541 | 58581 3 | 13:01.07 | 5:40.61 | 58582 | 84142 4 | 18:41.68 | 7:35.06 | 84143 | 118273 5 | 26:16.74 | 8:49.20 | 118274 | 157968 6 | 35:06.19 | 8:02.00 | 157969 | 194118 7 | 43:08.19 | 5:33.28 | 194119 | 219121 8 | 48:41.47 | 6:12.37 | 219122 | 247058 9 | 54:54.09 | 5:21.00 | 247059 | 271133 10 | 60:15.09 | 7:00.28 | 271134 | 302661 11 | 67:15.37 | 7:13.49 | 302662 | 335185
Трек 1
Имя файла H:\Music\FLAC\Trance\Two moon butterflies\01 Together With Mai on Fourth Heaven.wav
Длина предзазора 0:00:02.00
Пиковый уровень 97.7 % Скорость извлечения 2.5 X Качество трека 100.0 % CRC теста 9883EC90 CRC копии 9883EC90 Точное извлечение (достоверность 3) [F48FAF8E] (AR v1) Копирование... OK
Трек 2
Имя файла H:\Music\FLAC\Trance\Two moon butterflies\02 Geisha Secrets.wav
Пиковый уровень 97.7 % Скорость извлечения 2.8 X Качество трека 99.9 % CRC теста 73E19795 CRC копии 73E19795 Точное извлечение (достоверность 3) [A80A5F9F] (AR v1) Копирование... OK
Трек 3
Имя файла H:\Music\FLAC\Trance\Two moon butterflies\03 Rearl Isalnd.wav
Пиковый уровень 97.7 % Скорость извлечения 3.3 X Качество трека 100.0 % CRC теста 797A53B5 CRC копии 797A53B5 Точное извлечение (достоверность 3) [3542ED5C] (AR v1) Копирование... OK
Трек 4
Имя файла H:\Music\FLAC\Trance\Two moon butterflies\04 One Day in Winter Garden.wav
Пиковый уровень 97.7 % Скорость извлечения 3.8 X Качество трека 100.0 % CRC теста B8EDA037 CRC копии B8EDA037 Точное извлечение (достоверность 3) [5D143F74] (AR v1) Копирование... OK
Трек 5
Имя файла H:\Music\FLAC\Trance\Two moon butterflies\05 Lady of the Coco Flower.wav
Пиковый уровень 97.7 % Скорость извлечения 4.2 X Качество трека 100.0 % CRC теста 8F72EE52 CRC копии 8F72EE52 Точное извлечение (достоверность 3) [E6C9DAB3] (AR v1) Копирование... OK
Трек 6
Имя файла H:\Music\FLAC\Trance\Two moon butterflies\06 Sakura.wav
Пиковый уровень 97.7 % Скорость извлечения 4.5 X Качество трека 100.0 % CRC теста ABE47A61 CRC копии ABE47A61 Точное извлечение (достоверность 3) [51A6FBA9] (AR v1) Копирование... OK
Трек 7
Имя файла H:\Music\FLAC\Trance\Two moon butterflies\07 Ghost in the Pyramids.wav
Пиковый уровень 97.7 % Скорость извлечения 4.6 X Качество трека 100.0 % CRC теста F1E4DDDB CRC копии F1E4DDDB Точное извлечение (достоверность 3) [EE95218B] (AR v1) Копирование... OK
Трек 8
Имя файла H:\Music\FLAC\Trance\Two moon butterflies\08 Sweet Dream.wav
Пиковый уровень 97.7 % Скорость извлечения 4.5 X Качество трека 99.9 % CRC теста 2D0AA6CC CRC копии 2D0AA6CC Точное извлечение (достоверность 3) [8556422E] (AR v1) Копирование... OK
Трек 9
Имя файла H:\Music\FLAC\Trance\Two moon butterflies\09 Girl From Heavens.wav
Пиковый уровень 97.7 % Скорость извлечения 4.6 X Качество трека 99.9 % CRC теста 70FB2F7D CRC копии 70FB2F7D Точное извлечение (достоверность 3) [865A94C6] (AR v1) Копирование... OK
Трек 10
Имя файла H:\Music\FLAC\Trance\Two moon butterflies\10 Two Moon Butterflies.wav
Пиковый уровень 97.7 % Скорость извлечения 5.4 X Качество трека 100.0 % CRC теста 3EC31B01 CRC копии 3EC31B01 Точное извлечение (достоверность 3) [56414B64] (AR v1) Копирование... OK
Трек 11
Имя файла H:\Music\FLAC\Trance\Two moon butterflies\11 First Love.wav
Пиковый уровень 97.7 % Скорость извлечения 5.7 X Качество трека 100.0 % CRC теста B952871F CRC копии B952871F Точное извлечение (достоверность 3) [CC9D0C9D] (AR v1) Копирование... OK
Все треки извлечены точно
Ошибок не произошло
Конец отчёта
==== Контрольная сумма отчёта FDF8B6997E2B258E3DE0ADF389BFB50D46EAEA65C417E0D8486A06702CAAEECC ====

Содержание индексной карты (.CUE)

REM GENRE AmbientREM DATE 2006REM DISCID 9711750BREM COMMENT "ExactAudioCopy v1.0b3"PERFORMER "Koan"TITLE "Two Moon Butterflies"FILE "01 - Together With Mai on Fourth Heaven.wav" WAVE TRACK 01 AUDIO TITLE "Together With Mai On Fourth Heaven" PERFORMER "Koan" INDEX 01 00:00:00FILE "02 - Geisha Secrets.wav" WAVE TRACK 02 AUDIO TITLE "Geisha Secrets" PERFORMER "Koan" INDEX 01 00:00:00FILE "03 - Pearl Island.wav" WAVE TRACK 03 AUDIO TITLE "Pearl Island" PERFORMER "Koan" INDEX 01 00:00:00FILE "04 - One Day in Winter Garden.wav" WAVE TRACK 04 AUDIO TITLE "One Day In Winter Garden" PERFORMER "Koan" INDEX 01 00:00:00FILE "05 - Lady of the Coco Flower.wav" WAVE TRACK 05 AUDIO TITLE "Lady Of The Coco Flower" PERFORMER "Koan" INDEX 01 00:00:00FILE "06 - Sakura.wav" WAVE TRACK 06 AUDIO TITLE "Sakura" PERFORMER "Koan" INDEX 01 00:00:00FILE "07 - Ghost in the Pyramids.wav" WAVE TRACK 07 AUDIO TITLE "Ghosts In The Pyramids" PERFORMER "Koan" INDEX 01 00:00:00FILE "08 - Sweet Dream.wav" WAVE TRACK 08 AUDIO TITLE "Sweet Dream" PERFORMER "Koan" INDEX 01 00:00:00FILE "09 - Girl From Heavens.wav" WAVE TRACK 09 AUDIO TITLE "Girl From Heavens" PERFORMER "Koan" INDEX 01 00:00:00FILE "10 - Two Moon Butterflies.wav" WAVE TRACK 10 AUDIO TITLE "Two Moon Butterflies" PERFORMER "Koan" INDEX 01 00:00:00FILE "11 - First Love.wav" WAVE TRACK 11 AUDIO TITLE "First Love" PERFORMER "Koan" INDEX 01 00:00:00

2007: Coastline EP (WEB)

Жанр: PsyChill, Downtempo
Страна-производитель диска: Denmark
Год выхода: 2007
Дата выхода оригинального издания: Nov 2007
Тип издания: WEB, EP
Лейбл: Sofa Beats
Номер по каталогу: SOFABEATSDIGITAL01
Аудиокодек: FLAC (*.flac)
Битрейт аудио: lossless
Тип рипа: tracks
Продолжительность: 00:24:02
Наличие сканов в содержимом раздачи: Да (Front)
Треклист:
01 - Fashionable Mood (04:59)
02 - Watermarks (10:28)
03 - Coastline (08:35)
http://www.junodownload.com/products/koan-coastline-ep/1282020-02/

Лог проверки качества

-----------------------
DON'T MODIFY THIS FILE
-----------------------
PERFORMER: auCDtect Task Manager, ver. 1.5.1RC6 build 1.5.1.7Copyright (c) 2008-2010 y-soft. All rights reservedhttp://y-soft.org
ANALYZER: auCDtect: CD records authenticity detector, version 0.8.2Copyright (c) 2004 Oleg Berngardt. All rights reserved.Copyright (c) 2004 Alexander Djourik. All rights reserved.
FILE: 03 - Coastline.flac Size: 54944285 Hash: 82800C861DDD0E5AD8BBE3A00827BC16 Accuracy: -m0 Conclusion: CDDA 100% Signature: CDB9655950C91D385C79F010045F9EF1FC272323FILE: 02 - Watermarks.flac Size: 69051779 Hash: C883909F46AF31D6CFC52F01E144D66A Accuracy: -m0 Conclusion: MPEG 95% Signature: 4CD8EDD30B4015263C7EB75665F71FD164C89776FILE: 01 - Fasionable Mood.flac Size: 33304009 Hash: 8E9DB5F56B7783DD7B73E6CB83C9A30F Accuracy: -m0 Conclusion: CDDA 100% Signature: 2462E3F86CA2DDCEB03CF09B4C6C204EB5DB6D8E

2007: Fulfilled Wish EP (WEB)

Жанр: Ethno-Lounge, Downtempo
Страна-производитель диска: Russia
Год выхода: 2007
Дата выхода оригинального издания: 12 May 2007
Тип издания: WEB, EP
Лейбл: Sun Station
Номер по каталогу: sstar03
Аудиокодек: FLAC (*.flac)
Битрейт аудио: lossless
Тип рипа: tracks
Продолжительность: 00:31:05
Наличие сканов в содержимом раздачи: Да (Front)
Треклист:
01 - In The Forest Castle (06:22)
02 - Wheels Of Fortune (06:19)
03 - Priceless Diamonds (04:47)
04 - Fulfilled Wish (07:41)
05 - Forgotten Path (05:56)
http://www.ektoplazm.com/free-music/koan-fulfilled-wish-ep

Лог проверки качества

-----------------------
DON'T MODIFY THIS FILE
-----------------------
PERFORMER: auCDtect Task Manager, ver. 1.5.1RC6 build 1.5.1.7Copyright (c) 2008-2010 y-soft. All rights reservedhttp://y-soft.org
ANALYZER: auCDtect: CD records authenticity detector, version 0.8.2Copyright (c) 2004 Oleg Berngardt. All rights reserved.Copyright (c) 2004 Alexander Djourik. All rights reserved.
FILE: 05 - Forgotten Path.flac Size: 38531127 Hash: 0D64A09832DD61F9BC4F6139426EE4F3 Accuracy: -m0 Conclusion: CDDA 100% Signature: 40C0FEFCAB597CC77FFAAA5749A9924451A138A0FILE: 04 - Fulfilled Wish.flac Size: 52704003 Hash: 545D9C6224A9D585FF35F6F81B8F3449 Accuracy: -m0 Conclusion: CDDA 99% Signature: A6823F8D9D2546B400B95D4FAAF63458F2FF588FFILE: 03 - Priceless Diamonds.flac Size: 34400266 Hash: EDCC0373B2F0AF8A9B4B7BDEC432FEF7 Accuracy: -m0 Conclusion: CDDA 100% Signature: 67A4FFFD47834F4117F89AFF45796ADE044C23D6FILE: 02 - Wheels Of Fortune.flac Size: 43532674 Hash: D2BE1CB14B591B5A9989AD9C467215F0 Accuracy: -m0 Conclusion: CDDA 100% Signature: 028004A076C62B263EA33FC3FDF962D182429AF4FILE: 01 - In The Forest Castle.flac Size: 42993264 Hash: 60EE31BDBEF04130DDBDAC9E09BE5968 Accuracy: -m0 Conclusion: CDDA 100% Signature: BE271642C4841FC219319CA1DBC135A8E478B95A

2008: Watermarks Remixes EP (WEB)

Жанр: PsyChill
Страна-производитель диска: Denmark
Год выхода: 2008
Дата выхода оригинального издания: 29 Aug 2008
Тип издания: WEB, EP
Лейбл: Iboga Records
Номер по каталогу: IBOGADIGITAL26
Аудиокодек: FLAC (*.flac)
Битрейт аудио: lossless
Тип рипа: tracks
Продолжительность: 00:35:23
Наличие сканов в содержимом раздачи: Да (Front)
Треклист:
01 - Watermarks (Koan Remix) (10:19)
02 - Watermarks (Krusseldorf / Koan Remix) (06:44)
03 - Watermarks (10:28)
04 - Watermarks (Behind Blue Eyes Remix) (07:52)
http://www.junodownload.com/products/koan-watermarks-remixes/1346831-02/

Лог проверки качества

-----------------------
DON'T MODIFY THIS FILE
-----------------------
PERFORMER: auCDtect Task Manager, ver. 1.5.1RC6 build 1.5.1.7Copyright (c) 2008-2010 y-soft. All rights reservedhttp://y-soft.org
ANALYZER: auCDtect: CD records authenticity detector, version 0.8.2Copyright (c) 2004 Oleg Berngardt. All rights reserved.Copyright (c) 2004 Alexander Djourik. All rights reserved.
FILE: 04 - Watermarks (Behind Blue Eyes Remix).flac Size: 51526126 Hash: 1E2AE31611636EFF63BC9F9AC7906CDF Accuracy: -m0 Conclusion: CDDA 100% Signature: 31A0C00C5F965846C90FDB8D6FEE43370384B208FILE: 03 - Watermarks.flac Size: 69109062 Hash: C883909F46AF31D6CFC52F01E144D66A Accuracy: -m0 Conclusion: MPEG 95% Signature: 309E3F21D85609C30F1B94EBE61086967F72300BFILE: 02 - Watermarks (Krusseldorf, Koan Remix).flac Size: 40443891 Hash: E25F73173DF025A54BD7C7231C214E5C Accuracy: -m0 Conclusion: CDDA 100% Signature: D6B4A6561EEEC17A86CDD0394E9B85ED1A44C6D1FILE: 01 - Watermarks (Koan Remix).flac Size: 68154689 Hash: EC2D7C95949A96F3E516B877063020D7 Accuracy: -m0 Conclusion: CDDA 100% Signature: 7629658442561C7886EFDA6E534311D2CFB35CEC

2009: Matariki (WEB)

Жанр: Downtempo, Ambient
Страна-производитель диска: Germany
Год выхода: 2009
Дата выхода оригинального издания: 15 Dec 2009
Тип издания: WEB, Mini-Album
Лейбл: Blue Tunes Recordings
Номер по каталогу: BTRDR017
Аудиокодек: FLAC (*.flac)
Битрейт аудио: lossless
Тип рипа: tracks
Продолжительность: 00:48:57
Наличие сканов в содержимом раздачи: Да (Front)
Треклист:
01 - Where The Street Have No Name (07:51)
02 - Park Of Summer Expectations (06:39)
03 - Beach Taxi (08:50)
04 - Liquid Dunes (07:22)
05 - Warm Evening In Pula (09:09)
06 - Matariki (09:06)
http://www.junodownload.com/products/koan-matariki/1500005-02/

Лог проверки качества

-----------------------
DON'T MODIFY THIS FILE
-----------------------
PERFORMER: auCDtect Task Manager, ver. 1.5.1RC6 build 1.5.1.7Copyright (c) 2008-2010 y-soft. All rights reservedhttp://y-soft.org
ANALYZER: auCDtect: CD records authenticity detector, version 0.8.2Copyright (c) 2004 Oleg Berngardt. All rights reserved.Copyright (c) 2004 Alexander Djourik. All rights reserved.
FILE: 06 - Matariki.flac Size: 59883960 Hash: 2240933F21744B6A4F6DD8C577200572 Accuracy: -m0 Conclusion: CDDA 99% Signature: 29FC91B6CCB1EAE559C4A84401A21EA519305DC3FILE: 05 - Warm Evening In Pula.flac Size: 63656104 Hash: A48D10FC9177F0479FDC244F413CA672 Accuracy: -m0 Conclusion: CDDA 99% Signature: 7AEA5B80D8E43AEE7D4926ED14A8A7141B571DB7FILE: 04 - Liquid Dunes.flac Size: 50669344 Hash: 438F88D54BA9261AD28A8F1F09FA741F Accuracy: -m0 Conclusion: CDDA 99% Signature: 1549FAECFECB3BDB7FF290C57FAF98A699E7C86FFILE: 03 - Beach Taxi.flac Size: 54393350 Hash: 94BE52D7651982B40DDFFE6445C2775D Accuracy: -m0 Conclusion: CDDA 100% Signature: 1B22D58809D0932BA16DC635CFF4D36BCF546581FILE: 02 - Park Of Summer Expectations.flac Size: 42975915 Hash: 5F9FCDB8A96A70EAAAD46B408598C743 Accuracy: -m0 Conclusion: CDDA 100% Signature: D2A36F1C09F0472E0274968C852893E7A7865F7BFILE: 01 - Where The Street Have No Name.flac Size: 51555931 Hash: E08A4AFD9AC9D06538CEA19CA4957045 Accuracy: -m0 Conclusion: CDDA 99% Signature: 2FEBB85030521638F25EDE5CC0E76ED13ED191D6

2009: When The Silence Is Speaking

Жанр: Downtempo, Ambient
Страна-производитель диска: Germany
Год выхода: 2009
Дата выхода оригинального издания: 30 Nov 2009
Тип издания: CD, Album
Лейбл: Blue Tunes Recordings
Номер по каталогу: BTRCD030
Аудиокодек: FLAC (*.flac)
Битрейт аудио: lossless
Тип рипа: tracks+.cue
Продолжительность: 01:19:05
Наличие сканов в содержимом раздачи: да
Треклист:
01 - Back to the Silent Lagoon (Blue mix) (09:29)
02 - Selena's Song (Blue mix) (11:00)
03 - After the Guiding Venus (07:57)
04 - The Island of Deceased Ships (07:32)
05 - Dance of Nereids (10:21)
06 - Odysseus Under the Old Tree (09:16)
07 - Underwater Moonlight (Blue mix) (08:02)
08 - When the Silence is Speaking (Blue mix) (11:16)
09 - Dolphin and Eos (04:12)

Лог создания рипа

Exact Audio Copy V0.99 prebeta 4 from 23. January 2008
EAC extraction logfile from 5. February 2010, 13:47
Koan / When The Silence Is Speaking
Used drive : HL-DT-STDVD-RAM GSA-H55N Adapter: 4 ID: 0
Read mode : SecureUtilize accurate stream : YesDefeat audio cache : YesMake use of C2 pointers : No
Read offset correction : 102Overread into Lead-In and Lead-Out : NoFill up missing offset samples with silence : YesDelete leading and trailing silent blocks : NoNull samples used in CRC calculations : YesUsed interface : Installed external ASPI interfaceGap handling : Appended to previous track
Used output format : User Defined EncoderSelected bitrate : 1024 kBit/sQuality : HighAdd ID3 tag : NoCommand line compressor : C:\Program Files\FLAC\flac.exeAdditional command line options : -8 -V -T "ARTIST=%a" -T "TITLE=%t" -T "ALBUM=%g" -T "DATE=%y" -T "TRACKNUMBER=%n" -T "GENRE=%m" -T "COMMENT=EAC FLAC -8" %s
TOC of the extracted CD
Track | Start | Length | Start sector | End sector --------------------------------------------------------- 1 | 0:00.00 | 9:28.56 | 0 | 42655 2 | 9:28.56 | 10:59.45 | 42656 | 92125 3 | 20:28.26 | 7:57.15 | 92126 | 127915 4 | 28:25.41 | 7:32.10 | 127916 | 161825 5 | 35:57.51 | 10:21.15 | 161826 | 208415 6 | 46:18.66 | 9:16.23 | 208416 | 250138 7 | 55:35.14 | 8:02.00 | 250139 | 286288 8 | 63:37.14 | 11:16.00 | 286289 | 336988 9 | 74:53.14 | 4:11.41 | 336989 | 355854
Track 1
Filename D:\msc\upl\p-bt\Koan\2009 - When The Silence Is Speaking\01 - Back to the Silent Lagoon (Blue mix).wav
Pre-gap length 0:00:02.00
Peak level 99.9 % Track quality 100.0 % Test CRC 482EE2A0 Copy CRC 482EE2A0 Accurately ripped (confidence 3) [5E2C3039] Copy OK
Track 2
Filename D:\msc\upl\p-bt\Koan\2009 - When The Silence Is Speaking\02 - Selena's Song (Blue mix).wav
Pre-gap length 0:00:02.00
Peak level 99.9 % Track quality 100.0 % Test CRC FC4BD64E Copy CRC FC4BD64E Accurately ripped (confidence 3) [6D844A2C] Copy OK
Track 3
Filename D:\msc\upl\p-bt\Koan\2009 - When The Silence Is Speaking\03 - After the Guiding Venus.wav
Pre-gap length 0:00:02.00
Peak level 100.0 % Track quality 100.0 % Test CRC 266873C0 Copy CRC 266873C0 Accurately ripped (confidence 3) [E3EBB7A4] Copy OK
Track 4
Filename D:\msc\upl\p-bt\Koan\2009 - When The Silence Is Speaking\04 - The Island of Deceased Ships.wav
Pre-gap length 0:00:02.00
Peak level 97.8 % Track quality 100.0 % Test CRC 16B693A4 Copy CRC 16B693A4 Accurately ripped (confidence 3) [70D49E4C] Copy OK
Track 5
Filename D:\msc\upl\p-bt\Koan\2009 - When The Silence Is Speaking\05 - Dance of Nereids.wav
Pre-gap length 0:00:02.00
Peak level 97.7 % Track quality 100.0 % Test CRC F29B2E4B Copy CRC F29B2E4B Accurately ripped (confidence 3) [A3D1C625] Copy OK
Track 6
Filename D:\msc\upl\p-bt\Koan\2009 - When The Silence Is Speaking\06 - Odysseus Under the Old Tree.wav
Pre-gap length 0:00:02.00
Peak level 100.0 % Track quality 100.0 % Test CRC 6DD99388 Copy CRC 6DD99388 Accurately ripped (confidence 3) [4075E039] Copy OK
Track 7
Filename D:\msc\upl\p-bt\Koan\2009 - When The Silence Is Speaking\07 - Underwater Moonlight (Blue mix).wav
Pre-gap length 0:00:02.00
Peak level 100.0 % Track quality 100.0 % Test CRC 60AD2965 Copy CRC 60AD2965 Accurately ripped (confidence 3) [7E891991] Copy OK
Track 8
Filename D:\msc\upl\p-bt\Koan\2009 - When The Silence Is Speaking\08 - When the Silence is Speaking (Blue mix).wav
Pre-gap length 0:00:02.00
Peak level 99.8 % Track quality 100.0 % Test CRC 19AB6FF8 Copy CRC 19AB6FF8 Accurately ripped (confidence 3) [1F2433C3] Copy OK
Track 9
Filename D:\msc\upl\p-bt\Koan\2009 - When The Silence Is Speaking\09 - Dolphin and Eos.wav
Pre-gap length 0:00:02.00
Peak level 99.8 % Track quality 100.0 % Test CRC 7F9502B2 Copy CRC 7F9502B2 Accurately ripped (confidence 3) [363A8ECC] Copy OK
All tracks accurately ripped
No errors occurred
End of status report

Содержание индексной карты (.CUE)

REM GENRE Abient\DowntempoREM DATE 2009REM DISCID 80128809REM COMMENT "ExactAudioCopy v0.99pb4"PERFORMER "Koan"TITLE "When The Silence Is Speaking"FILE "01 - Back to the Silent Lagoon (Blue mix).wav" WAVE TRACK 01 AUDIO TITLE "Back to the Silent Lagoon (Blue mix)" PERFORMER "Koan" FLAGS DCP INDEX 01 00:00:00 TRACK 02 AUDIO TITLE "Selena's Song (Blue mix)" PERFORMER "Koan" FLAGS DCP INDEX 00 09:26:56FILE "02 - Selena's Song (Blue mix).wav" WAVE INDEX 01 00:00:00 TRACK 03 AUDIO TITLE "After the Guiding Venus" PERFORMER "Koan" FLAGS DCP INDEX 00 10:57:45FILE "03 - After the Guiding Venus.wav" WAVE INDEX 01 00:00:00 TRACK 04 AUDIO TITLE "The Island of Deceased Ships" PERFORMER "Koan" FLAGS DCP INDEX 00 07:55:15FILE "04 - The Island of Deceased Ships.wav" WAVE INDEX 01 00:00:00 TRACK 05 AUDIO TITLE "Dance of Nereids" PERFORMER "Koan" FLAGS DCP INDEX 00 07:30:10FILE "05 - Dance of Nereids.wav" WAVE INDEX 01 00:00:00 TRACK 06 AUDIO TITLE "Odysseus Under the Old Tree" PERFORMER "Koan" FLAGS DCP INDEX 00 10:19:15FILE "06 - Odysseus Under the Old Tree.wav" WAVE INDEX 01 00:00:00 TRACK 07 AUDIO TITLE "Underwater Moonlight (Blue mix)" PERFORMER "Koan" FLAGS DCP INDEX 00 09:14:23FILE "07 - Underwater Moonlight (Blue mix).wav" WAVE INDEX 01 00:00:00 TRACK 08 AUDIO TITLE "When the Silence is Speaking (Blue mix)" PERFORMER "Koan" FLAGS DCP INDEX 00 08:00:00FILE "08 - When the Silence is Speaking (Blue mix).wav" WAVE INDEX 01 00:00:00 TRACK 09 AUDIO TITLE "Dolphin and Eos" PERFORMER "Koan" FLAGS DCP INDEX 00 11:14:00FILE "09 - Dolphin and Eos.wav" WAVE INDEX 01 00:00:00

2010: Legends: Inhale (WEB) (24bit)

Жанр: PsyChill, Lounge, Downtempo, Ambient
Страна-производитель диска: Russia
Год выхода: 2010
Дата выхода оригинального издания: 19 Dec 2010
Тип издания: WEB, Album
Лейбл: Qulture Production
Номер по каталогу: QULT COM #03
Аудиокодек: 24bit, FLAC (*.flac)
Битрейт аудио: lossless
Тип рипа: tracks
Продолжительность: 01:35:32
Наличие сканов в содержимом раздачи: Да (Front)
Треклист:
01 - Invisible Guide (01:24)
02 - Forgiveness (03:05)
03 - Empty Plain (04:09)
04 - Fire (00:46)
05 - Wandering Minestrel (09:15)
06 - Unique Moment (Green Mix) (06:56)
07 - Hidden Place (Green Mix) (08:08)
08 - Underwater Moonlight (Green Mix) (11:10)
09 - Innuendo (Green Mix) (09:55)
10 - Spirits Of The Old Lake (10:40)
11 - Immortal (Green Mix) (07:25)
12 - Wanderers From Earthsea (Green Mix) (07:22)
13 - Night Flight On A Sea Dragon (Green Mix) (05:33)
14 - There Is No Begin, There Is No End (Green Mix) (03:59)
15 - Where The Intention Leads (Tribute) (Green Mix) (04:09)
16 - Inhale (01:36)
http://www.discogs.com/Koan-Legends-Inhale/release/2610961

Спектры

2010: Legends: Exhale (WEB) (24bit)

Жанр: PsyChill, Lounge, Downtempo, Ambient
Страна-производитель диска: Russia
Год выхода: 2010
Дата выхода оригинального издания: 19 Dec 2010
Тип издания: WEB, Album
Лейбл: Qulture Production
Номер по каталогу: QULT COM #04
Аудиокодек: 24bit, FLAC (*.flac)
Битрейт аудио: lossless
Тип рипа: tracks
Продолжительность: 01:19:23
Наличие сканов в содержимом раздачи: Да (Front)
Треклист:
01 - The Sky (01:06)
02 - Invisible Answers (Green Mix) (06:08)
03 - Fearless (05:42)
04 - Smooth Movements (Green Mix) (04:22)
05 - Exempting From The Spell (07:07)
06 - Winged Knights (09:05)
07 - The Earth (01:31)
08 - White Fire Of Mount Kailash (07:47)
09 - On The Ship Of The Ninth Heaven (05:59)
10 - Wing Of Changes (Green Mix) (04:02)
11 - Morgana's Amulet (04:13)
12 - Avariel's Heaven City (Green Mix) (09:22)
13 - Water (01:12)
14 - Last Meeting With White Wolf (Green Mix) (06:04)
15 - I Shall Return (Tribute) (Green Mix) (03:14)
16 - Exhale (02:29)
http://www.discogs.com/Koan-Legends-Exhale/release/2611349

Спектры

2010: The Signs: Entanglement (WEB)

Жанр: Tribal, Downtempo, Ambient
Страна-производитель диска: Canada
Год издания диска: 2010
Дата выхода оригинального издания: 31 Dec 2010
Тип издания: WEB, Album, Mixed
Лейбл: Omnitropic
Номер по каталогу: OMNI 004
Аудиокодек: FLAC (*.flac)
Битрейт аудио: lossless
Тип рипа: tracks
Продолжительность: 02:02:55
Наличие сканов в содержимом раздачи: Да (Front)
Треклист:
01 - At The Sunset (Early Mix) (03:00)
02 - Entanglement (05:28)
03 - Cave Entrance (02:23)
04 - Return To The Pearl Island (01:05)
05 - Evening Flight With Souram (02:16)
06 - Secret Map Of Cortes (03:16)
07 - By The Crystalline Cliffs (01:40)
08 - On The Red Flatland (01:23)
09 - Shanu's Vision (01:22)
10 - The Chase (03:19)
11 - Vaiteri's Trial (01:08)
12 - The Return Of The Conquistadors (06:13)
13 - Aerial Cricket (04:36)
14 - Big Trouble In Rio Grande (02:06)
15 - Diego The Pirate's Broken Circle (02:24)
16 - Shadows Around The Corner (00:47)
17 - Night-Time Talk With Coyote (02:54)
18 - Meeting At Mercedos (03:18)
19 - House In The Wilderness Part 1 (Meeting With Jose) (04:46)
20 - After The Taste Of Rose The Gypsy's Brew (01:46)
21 - A Firefly Wearing A Blue Hat With A Small Lamp (04:56)
22 - Inside Oko-Shika (02:22)
23 - House In The Wilderness Part 2 (Night Flights Over Sonora Desert) (05:51)
24 - Meeting With Don Ernesto's Shades (01:43)
25 - Santiago's Passes (01:46)
26 - Trapped (02:12)
27 - Boarding Action (01:19)
28 - Under The Waterfall (02:50)
29 - Night Rendezvous With Mercedes (04:57)
30 - Lone Wagon (feat. Tatyana Kalmykova) (05:37)
31 - At The Dwarf's Cave (01:37)
32 - Riding A Crocodile (01:49)
33 - Nebula (02:26)
34 - Exposure (09:37)
35 - Jaguar Fights Don Ernesto (05:47)
36 - Sabotage (feat. Tatyana Kalmykova) (04:58)
37 - Return (02:04)
38 - Shanu And The Bear (01:17)
39 - Liberation (01:51)
40 - At Dawn (Later Mix) (02:46)
http://www.ektoplazm.com/free-music/koan-the-signs-entanglement/attachment/koan-t...gns-entanglement

Лог проверки качества

AUDIOCHECKER v2.0 beta (build 457) - by Dester - opdester@freemail.hu~~~~~~~~~~~~~~~~~~~~~~~~~~~~~~~~~~-=== НЕ РЕДАКТИРУЙТЕ ЭТОТ ФАЙЛ! ===-
Путь: ...\Koan - The Signs - Entanglement - 2010 - FLAC
01 -=- 01 - Koan - At The Sunset (Early Mix).flac -=- CDDA (100%)02 -=- 02 - Koan - Entanglement.flac -=- CDDA (100%)03 -=- 03 - Koan - Cave Entrance.flac -=- CDDA (100%)04 -=- 04 - Koan - Return To The Pearl Island.flac -=- CDDA (100%)05 -=- 05 - Koan - Evening Flight With Souram.flac -=- CDDA (100%)06 -=- 06 - Koan - Secret Map Of Cortes.flac -=- CDDA (100%)07 -=- 07 - Koan - By The Crystalline Cliffs.flac -=- CDDA (100%)08 -=- 08 - Koan - On The Red Flatland.flac -=- CDDA (100%)09 -=- 09 - Koan - Shanu's Vision.flac -=- CDDA (100%)10 -=- 10 - Koan - The Chase.flac -=- CDDA (100%)11 -=- 11 - Koan - Vaiteri's Trial.flac -=- CDDA (100%)12 -=- 12 - Koan - The Return Of The Conquistadors.flac -=- CDDA (100%)13 -=- 13 - Koan - Aerial Cricket.flac -=- CDDA (99%)14 -=- 14 - Koan - Big Trouble In Rio Grande.flac -=- CDDA (100%)15 -=- 15 - Koan - Diego The Pirate's Broken Circle.flac -=- CDDA (100%)16 -=- 16 - Koan - Shadows Around The Corner.flac -=- CDDA (100%)17 -=- 17 - Koan - Night-Time Talk With Coyote.flac -=- CDDA (100%)18 -=- 18 - Koan - Meeting At Mercedos.flac -=- CDDA (100%)19 -=- 19 - Koan - House In The Wilderness Part 1 (Meeting With Jose).flac -=- CDDA (100%)20 -=- 20 - Koan - After The Taste Of Rose The Gypsy's Brew.flac -=- CDDA (85%)21 -=- 21 - Koan - A Firefly Wearing A Blue Hat With A Small Lamp.flac -=- CDDA (100%)22 -=- 22 - Koan - Inside Oko-Shika.flac -=- CDDA (100%)23 -=- 23 - Koan - House In The Wilderness Part 2 (Night Flights Over Sonora Desert).flac -=- CDDA (100%)24 -=- 24 - Koan - Meeting With Don Ernesto's Shades.flac -=- CDDA (100%)25 -=- 25 - Koan - Santiago's Passes.flac -=- CDDA (100%)26 -=- 26 - Koan - Trapped.flac -=- CDDA (100%)27 -=- 27 - Koan - Boarding Action.flac -=- CDDA (100%)28 -=- 28 - Koan - Under The Waterfall.flac -=- CDDA (100%)29 -=- 29 - Koan - Night Rendezvous With Mercedes.flac -=- CDDA (100%)30 -=- 30 - Koan - Lone Wagon (feat. Tatyana Kalmykova).flac -=- CDDA (100%)31 -=- 31 - Koan - At The Dwarf's Cave.flac -=- CDDA (100%)32 -=- 32 - Koan - Riding A Crocodile.flac -=- CDDA (100%)33 -=- 33 - Koan - Nebula.flac -=- CDDA (100%)34 -=- 34 - Koan - Exposure.flac -=- CDDA (100%)35 -=- 35 - Koan - Jaguar Fights Don Ernesto.flac -=- CDDA (100%)36 -=- 36 - Koan - Sabotage (feat. Tatyana Kalmykova).flac -=- CDDA (100%)37 -=- 37 - Koan - Return.flac -=- CDDA (100%)38 -=- 38 - Koan - Shanu And The Bear.flac -=- CDDA (100%)39 -=- 39 - Koan - Liberation.flac -=- CDDA (100%)40 -=- 40 - Koan - At Dawn (Later Mix).flac -=- CDDA (100%)
Сводка 99,60% CDDA
128605444

2011: The Fables Of Belovodye

Жанр: Downtempo, Ambient, ChillOut
Страна-производитель диска: Germany
Год издания диска: 2011
Дата выхода оригинального издания: 06 May 2011
Тип издания: CD, Album
Лейбл: Blue Tunes Recordings
Номер по каталогу: BTRCD038
Аудиокодек: FLAC (*.flac)
Битрейт аудио: lossless
Тип рипа: tracks+.cue
Продолжительность: 01:17:14
Наличие сканов в содержимом раздачи: Да (.jpg)
Треклист:
01 - Citadel Of Velimudr (01:36)
02 - Going To Shining Svarga (08:28)
03 - Buyan Island (08:07)
04 - Dusk Above Arkona (10:18)
05 - Arctic Whispers (Blue Mix) (09:31)
06 - Syverian Lake (Phoenix Spellbound Mix) (05:35)
07 - Radomir Flights (06:51)
08 - Flying Cities (09:08)
09 - In The Makarian Gardens (07:37)
10 - When We Left Arkaim (Blue Mix) (10:03)

Лог создания рипа

Exact Audio Copy V1.0 beta 1 from 15. November 2010
EAC extraction logfile from 6. September 2011, 20:31
Koan / The Fables Of Belovodye
Used drive : PLEXTOR DVDR PX-820SA Adapter: 6 ID: 0
Read mode : SecureUtilize accurate stream : YesDefeat audio cache : YesMake use of C2 pointers : No
Read offset correction : 48Overread into Lead-In and Lead-Out : NoFill up missing offset samples with silence : YesDelete leading and trailing silent blocks : NoNull samples used in CRC calculations : YesUsed interface : Native Win32 interface for Win NT & 2000Gap handling : Appended to previous track
Used output format : User Defined EncoderSelected bitrate : 1024 kBit/sQuality : HighAdd ID3 tag : NoCommand line compressor : C:\Program Files (x86)\FLAC\flac.exeAdditional command line options : -8 -V -T "ARTIST=%a" -T "TITLE=%t" -T "ALBUM=%g" -T "DATE=%y" -T "TRACKNUMBER=%n" -T "TOTALTRACKS=%x" -T "GENRE=%m" -T "ALBUM ARTIST=%v" -T "ALBUMARTIST=%v" -T "COMMENT=EAC V1.0 beta 1, Secure Mode, Test & Copy, AccurateRip
TOC of the extracted CD
Track | Start | Length | Start sector | End sector --------------------------------------------------------- 1 | 0:00.00 | 1:36.21 | 0 | 7220 2 | 1:36.21 | 8:27.51 | 7221 | 45296 3 | 10:03.72 | 8:07.27 | 45297 | 81848 4 | 18:11.24 | 10:17.60 | 81849 | 128183 5 | 28:29.09 | 9:31.10 | 128184 | 171018 6 | 38:00.19 | 5:34.59 | 171019 | 196127 7 | 43:35.03 | 6:50.43 | 196128 | 226920 8 | 50:25.46 | 9:08.18 | 226921 | 268038 9 | 59:33.64 | 7:36.66 | 268039 | 302304 10 | 67:10.55 | 10:03.22 | 302305 | 347551
Track 1
Filename C:\EACrip\inik\Koan - The Fables Of Belovodye (2011) - FLAC\01 - Citadel Of Velimudr.wav
Pre-gap length 0:00:02.00
Peak level 96.5 % Extraction speed 1.6 X Track quality 99.8 % Test CRC 5A5780AE Copy CRC 5A5780AE Accurately ripped (confidence 2) [33E7550D] Copy OK
Track 2
Filename C:\EACrip\inik\Koan - The Fables Of Belovodye (2011) - FLAC\02 - Going To Shining Svarga.wav
Pre-gap length 0:00:01.98
Peak level 96.5 % Extraction speed 3.0 X Track quality 100.0 % Test CRC B4694523 Copy CRC B4694523 Accurately ripped (confidence 2) [3E2F4ED7] Copy OK
Track 3
Filename C:\EACrip\inik\Koan - The Fables Of Belovodye (2011) - FLAC\03 - Buyan Island.wav
Pre-gap length 0:00:01.98
Peak level 96.5 % Extraction speed 3.4 X Track quality 100.0 % Test CRC B0F4BCC5 Copy CRC B0F4BCC5 Accurately ripped (confidence 2) [8E4E6040] Copy OK
Track 4
Filename C:\EACrip\inik\Koan - The Fables Of Belovodye (2011) - FLAC\04 - Dusk Above Arkona.wav
Pre-gap length 0:00:01.98
Peak level 96.5 % Extraction speed 3.9 X Track quality 100.0 % Test CRC 474D450C Copy CRC 474D450C Accurately ripped (confidence 2) [E74130D0] Copy OK
Track 5
Filename C:\EACrip\inik\Koan - The Fables Of Belovodye (2011) - FLAC\05 - Arctic Whispers (Blue Mix).wav
Pre-gap length 0:00:01.98
Peak level 96.4 % Extraction speed 4.1 X Track quality 99.9 % Test CRC A35C03B8 Copy CRC A35C03B8 Accurately ripped (confidence 2) [489CFC45] Copy OK
Track 6
Filename C:\EACrip\inik\Koan - The Fables Of Belovodye (2011) - FLAC\06 - Syverian Lake (Phoenix Spellbound Mix).wav
Pre-gap length 0:00:01.98
Peak level 96.4 % Extraction speed 4.5 X Track quality 100.0 % Test CRC D3491402 Copy CRC D3491402 Accurately ripped (confidence 2) [2741B695] Copy OK
Track 7
Filename C:\EACrip\inik\Koan - The Fables Of Belovodye (2011) - FLAC\07 - Radomir Flights.wav
Pre-gap length 0:00:01.98
Peak level 96.5 % Extraction speed 4.8 X Track quality 100.0 % Test CRC 7975104F Copy CRC 7975104F Accurately ripped (confidence 2) [4E65884D] Copy OK
Track 8
Filename C:\EACrip\inik\Koan - The Fables Of Belovodye (2011) - FLAC\08 - Flying Cities.wav
Pre-gap length 0:00:01.98
Peak level 96.6 % Extraction speed 4.9 X Track quality 99.9 % Test CRC 90A42B24 Copy CRC 90A42B24 Accurately ripped (confidence 2) [F48D8B47] Copy OK
Track 9
Filename C:\EACrip\inik\Koan - The Fables Of Belovodye (2011) - FLAC\09 - In The Makarian Gardens.wav
Pre-gap length 0:00:01.98
Peak level 96.5 % Extraction speed 5.4 X Track quality 100.0 % Test CRC 5D3147CE Copy CRC 5D3147CE Accurately ripped (confidence 2) [376CA7B2] Copy OK
Track 10
Filename C:\EACrip\inik\Koan - The Fables Of Belovodye (2011) - FLAC\10 - When We Left Arkaim (Blue Mix).wav
Pre-gap length 0:00:01.98
Peak level 96.5 % Extraction speed 5.8 X Track quality 100.0 % Test CRC 86CC71A9 Copy CRC 86CC71A9 Accurately ripped (confidence 2) [3A6FC873] Copy OK
All tracks accurately ripped
No errors occurred
End of status report
==== Log checksum A7822ECE3FCB7043B744F7B209A47FB674313D4AD592E750CE15CC002DF87B4F ====

Содержание индексной карты (.CUE)

REM GENRE ElectronicREM DATE 2011REM DISCID 7C121A0AREM COMMENT "ExactAudioCopy v1.0b1"CATALOG 4250250404394FILE "01 - Citadel Of Velimudr.wav" WAVE TRACK 01 AUDIO ISRC DEGA21100568 INDEX 01 00:00:00 TRACK 02 AUDIO ISRC DEGA21100569 INDEX 00 01:34:22FILE "02 - Going To Shining Svarga.wav" WAVE INDEX 01 00:00:00 TRACK 03 AUDIO ISRC DEGA21100570 INDEX 00 08:25:52FILE "03 - Buyan Island.wav" WAVE INDEX 01 00:00:00 TRACK 04 AUDIO ISRC DEGA21100571 INDEX 00 08:05:28FILE "04 - Dusk Above Arkona.wav" WAVE INDEX 01 00:00:00 TRACK 05 AUDIO ISRC DEGA21100572 INDEX 00 10:15:61FILE "05 - Arctic Whispers (Blue Mix).wav" WAVE INDEX 01 00:00:00 TRACK 06 AUDIO ISRC DEGA21100573 INDEX 00 09:29:11FILE "06 - Syverian Lake (Phoenix Spellbound Mix).wav" WAVE INDEX 01 00:00:00 TRACK 07 AUDIO ISRC DEGA21100574 INDEX 00 05:32:60FILE "07 - Radomir Flights.wav" WAVE INDEX 01 00:00:00 TRACK 08 AUDIO ISRC DEGA21100575 INDEX 00 06:48:44FILE "08 - Flying Cities.wav" WAVE INDEX 01 00:00:00 TRACK 09 AUDIO ISRC DEGA21100576 INDEX 00 09:06:19FILE "09 - In The Makarian Gardens.wav" WAVE INDEX 01 00:00:00 TRACK 10 AUDIO ISRC DEGA21100577 INDEX 00 07:34:67FILE "10 - When We Left Arkaim (Blue Mix).wav" WAVE INDEX 01 00:00:00

2011: Circe's Touch Remixes Vol.1 (EP) (WEB)

Жанр: Abstract, Downtempo, Ambient
Страна-производитель диска: UK
Год издания диска: 2011
Дата выхода оригинального издания: 05 Dec 2011
Тип издания: WEB, EP
Издатель (лейбл): Section Records
Номер по каталогу: SCTN0007A
Аудиокодек: FLAC (*.flac)
Битрейт аудио: lossless
Тип рипа: tracks
Продолжительность: 00:20:49
Наличие сканов в содержимом раздачи: Да (Front)
Треклист:
01 - Circe's Touch (Original Edit) (08:22)
02 - Circe's Touch (Asura Remix) (05:58)
03 - Circe's Touch (Krusseldorf Muesli Remix) (06:29)
http://section.bandcamp.com/album/circes-touch-remixes-vol-1

Лог проверки качества

-----------------------
DON'T MODIFY THIS FILE
-----------------------
PERFORMER: auCDtect Task Manager, ver. 1.5.1RC6 build 1.5.1.7Copyright (c) 2008-2010 y-soft. All rights reservedhttp://y-soft.org
ANALYZER: auCDtect: CD records authenticity detector, version 0.8.2Copyright (c) 2004 Oleg Berngardt. All rights reserved.Copyright (c) 2004 Alexander Djourik. All rights reserved.
FILE: 03 - Circe's Touch (Krusseldorf Muesli Remix).flac Size: 36077930 Hash: F54C6CA18E6175D17261CA5B332C44E9 Accuracy: -m0 Conclusion: CDDA 100% Signature: 926361387515F7ED529772C667BA8E678307E864FILE: 02 - Circe's Touch (Asura Remix).flac Size: 37684176 Hash: B315DBDF0EB7A878A101AD20C53A0A5D Accuracy: -m0 Conclusion: CDDA 99% Signature: DA0046E235611B6487055677E5D66779F60992D2FILE: 01 - Circe's Touch (Original Edit).flac Size: 63915924 Hash: 64F1BD6486BCCB6D8AF4A3F389DDB8CB Accuracy: -m0 Conclusion: CDDA 100% Signature: 66622484175C283F846E909FE9A83558F3CA996C

2011: Circe's Touch Remixes Vol.2 (EP) (WEB)

Жанр: Progressive House, Techno, Progressive Trance
Страна-производитель диска: UK
Год издания диска: 2011
Дата выхода оригинального издания: 05 Dec 2011
Тип издания: WEB, EP
Издатель (лейбл): Section Records
Номер по каталогу: SCTN0007B
Аудиокодек: FLAC (*.flac)
Битрейт аудио: lossless
Тип рипа: tracks
Продолжительность: 00:28:13
Наличие сканов в содержимом раздачи: Да (Front)
Треклист:
01 - Circe's Touch (Soundprank's Reloaded Remix) (07:49)
02 - Circe's Touch (Nick Brennan's Odyssey Remix) (07:12)
03 - Circe's Touch (Petit Ange Destructured Remix) (06:59)
04 - Circe's Touch (Roeth & Grey Remix) (06:13)
http://section.bandcamp.com/album/circes-touch-remixes-vol-2

Лог проверки качества

-----------------------
DON'T MODIFY THIS FILE
-----------------------
PERFORMER: auCDtect Task Manager, ver. 1.5.1RC6 build 1.5.1.7Copyright (c) 2008-2010 y-soft. All rights reservedhttp://y-soft.org
ANALYZER: auCDtect: CD records authenticity detector, version 0.8.2Copyright (c) 2004 Oleg Berngardt. All rights reserved.Copyright (c) 2004 Alexander Djourik. All rights reserved.
FILE: 04 - Circe's Touch (Roeth & Grey Remix).flac Size: 45915035 Hash: 5949880F3A66424BCFF62DF2CC53AE3F Accuracy: -m0 Conclusion: CDDA 100% Signature: 060220F14E5EB86220D2C779E59BD0651FBFD5A5FILE: 03 - Circe's Touch (Petit Ange Destructured Remix).flac Size: 51137521 Hash: 12618255F236F237E03F27F49EC94F48 Accuracy: -m0 Conclusion: CDDA 100% Signature: 3836729219F2E9CCA67213A97DD668AFC8583DF8FILE: 02 - Circe's Touch (Nick Brennan's Odyssey Remix).flac Size: 56917326 Hash: 6A089CD123521B4AE066D066AA202291 Accuracy: -m0 Conclusion: CDDA 100% Signature: E944530A33C87F7DD36ED2BF5CF0A5224808BD39FILE: 01 - Circe's Touch (Soundprank's Reloaded Remix).flac Size: 54499540 Hash: 57A923DF6B81DDBAC0449EBED627C43F Accuracy: -m0 Conclusion: CDDA 100% Signature: 44B0BF8580A61F8CAABC5231B214B52BD1CDA75A

2012: Argonautica

Жанр: Ambient, Downtempo, Progressive Trance
Страна-производитель диска: UK
Год издания диска: 2012
Дата выхода оригинального издания: 26 Oct 2012
Тип издания: CD, Album
Издатель (лейбл): Section Records
Номер по каталогу: sctn0008
Аудиокодек: FLAC (*.flac)
Битрейт аудио: lossless
Тип рипа: tracks+.cue
Продолжительность: 01:18:28
Наличие сканов в содержимом раздачи: Да (.png, 300dpi)
Треклист:
01 - Orpheus and Eurydice (08:37)
02 - Lost Lyre (07:58)
03 - Peleus and Thetis (09:19)
04 - Irida Falls to Morpheus' Pits (07:44)
05 - Crying Prozerpine [Blue mix] (10:54)
06 - Pegasus (09:56)
07 - In the Garden of the Hesperides [Golden Apples mix] (08:35)
08 - Seven Mirrors of Atlas (07:40)
09 - Ladon [Serpent mix] (07:45)

Лог создания рипа

Exact Audio Copy V1.0 beta 3 from 29. August 2011
EAC extraction logfile from 10. January 2013, 15:22
Koan / Argonautica
Used drive : MATSHITADVD-RAM UJ8A0A Adapter: 0 ID: 1
Read mode : SecureUtilize accurate stream : YesDefeat audio cache : YesMake use of C2 pointers : No
Read offset correction : 102Overread into Lead-In and Lead-Out : NoFill up missing offset samples with silence : YesDelete leading and trailing silent blocks : NoNull samples used in CRC calculations : YesUsed interface : Native Win32 interface for Win NT & 2000Gap handling : Appended to previous track
Used output format : User Defined EncoderSelected bitrate : 1024 kBit/sQuality : HighAdd ID3 tag : NoCommand line compressor : C:\Program Files (x86)\Exact Audio Copy\Flac\flac.exeAdditional command line options : -8 -V -T "ARTIST=%artist%" -T "TITLE=%title%" -T "ALBUM=%albumtitle%" -T "DATE=%year%" -T "TRACKNUMBER=%tracknr%" -T "GENRE=%genre%" -T "PERFORMER=%albuminterpret%" -T "COMPOSER=%composer%" %haslyrics%--tag-from-file=LYRICS="%lyricsfile%"%haslyrics% -T "ALBUMARTIST=%albumartist%" -T "DISCNUMBER=%cdnumber%" -T "TOTALDISCS=%totalcds%" -T "TOTALTRACKS=%numtracks%" -T "COMMENT=%comment%" %source% -o %dest%
TOC of the extracted CD
Track | Start | Length | Start sector | End sector --------------------------------------------------------- 1 | 0:00.00 | 8:37.01 | 0 | 38775 2 | 8:37.01 | 7:57.51 | 38776 | 74601 3 | 16:34.52 | 9:19.22 | 74602 | 116548 4 | 25:53.74 | 7:43.54 | 116549 | 151327 5 | 33:37.53 | 10:53.58 | 151328 | 200360 6 | 44:31.36 | 9:56.12 | 200361 | 245072 7 | 54:27.48 | 8:35.11 | 245073 | 283708 8 | 63:02.59 | 7:39.48 | 283709 | 318181 9 | 70:42.32 | 7:44.61 | 318182 | 353042
Track 1
Filename C:\EAC Rips\Koan - Argonautica (2012)[FLAC][CD][ambient]\01 - Koan - Orpheus and Eurydice.wav
Pre-gap length 0:00:02.00
Peak level 100.0 % Extraction speed 1.7 X Track quality 100.0 % Test CRC A66013A3 Copy CRC A66013A3 Track not present in AccurateRip database Copy OK
Track 2
Filename C:\EAC Rips\Koan - Argonautica (2012)[FLAC][CD][ambient]\02 - Koan - Lost Lyre.wav
Peak level 100.0 % Extraction speed 2.0 X Track quality 100.0 % Test CRC E7EB059A Copy CRC E7EB059A Track not present in AccurateRip database Copy OK
Track 3
Filename C:\EAC Rips\Koan - Argonautica (2012)[FLAC][CD][ambient]\03 - Koan - Peleus and Thetis.wav
Peak level 100.0 % Extraction speed 2.3 X Track quality 100.0 % Test CRC FC833F06 Copy CRC FC833F06 Track not present in AccurateRip database Copy OK
Track 4
Filename C:\EAC Rips\Koan - Argonautica (2012)[FLAC][CD][ambient]\04 - Koan - Irida Falls to Morpheus' Pits.wav
Peak level 100.0 % Extraction speed 2.5 X Track quality 100.0 % Test CRC 6F7EAFA2 Copy CRC 6F7EAFA2 Track not present in AccurateRip database Copy OK
Track 5
Filename C:\EAC Rips\Koan - Argonautica (2012)[FLAC][CD][ambient]\05 - Koan - Crying Prozerpine [Blue mix].wav
Peak level 100.0 % Extraction speed 2.8 X Track quality 100.0 % Test CRC AFD452FA Copy CRC AFD452FA Track not present in AccurateRip database Copy OK
Track 6
Filename C:\EAC Rips\Koan - Argonautica (2012)[FLAC][CD][ambient]\06 - Koan - Pegasus.wav
Peak level 100.0 % Extraction speed 3.0 X Track quality 100.0 % Test CRC 2941CDFB Copy CRC 2941CDFB Track not present in AccurateRip database Copy OK
Track 7
Filename C:\EAC Rips\Koan - Argonautica (2012)[FLAC][CD][ambient]\07 - Koan - In the Garden of the Hesperides [Golden Apples mix].wav
Peak level 100.0 % Extraction speed 3.2 X Track quality 100.0 % Test CRC 8DF95271 Copy CRC 8DF95271 Track not present in AccurateRip database Copy OK
Track 8
Filename C:\EAC Rips\Koan - Argonautica (2012)[FLAC][CD][ambient]\08 - Koan - Seven Mirrors of Atlas.wav
Peak level 100.0 % Extraction speed 3.3 X Track quality 100.0 % Test CRC 040728D5 Copy CRC 040728D5 Track not present in AccurateRip database Copy OK
Track 9
Filename C:\EAC Rips\Koan - Argonautica (2012)[FLAC][CD][ambient]\09 - Koan - Ladon [Serpent mix].wav
Peak level 100.0 % Extraction speed 3.2 X Track quality 99.9 % Test CRC 3680400A Copy CRC 3680400A Track not present in AccurateRip database Copy OK
None of the tracks are present in the AccurateRip database
No errors occurred
End of status report
---- CUETools DB Plugin V2.1.3
[CTDB TOCID: L398A7bDORYDyi6SqYUegDqPNeg-] found, Submit result: L398A7bDORYDyi6SqYUegDqPNeg- has been confirmed[4823dbd8] (1/1) Accurately ripped
==== Log checksum 63A46AB0C6EDB559676E0F62954A589F6F74060BA3580A437E631FF23B123954 ====

Содержание индексной карты (.CUE)

REM GENRE ambientREM DATE 2012REM DISCID 8F126309REM COMMENT "ExactAudioCopy v1.0b3"CATALOG 3760180500925PERFORMER "Koan"TITLE "Argonautica"FILE "01 - Koan - Orpheus and Eurydice.wav" WAVE TRACK 01 AUDIO TITLE "Orpheus and Eurydice" PERFORMER "Koan" ISRC GB5ML1200001 INDEX 01 00:00:00FILE "02 - Koan - Lost Lyre.wav" WAVE TRACK 02 AUDIO TITLE "Lost Lyre" PERFORMER "Koan" ISRC GB5ML1200002 INDEX 01 00:00:00FILE "03 - Koan - Peleus and Thetis.wav" WAVE TRACK 03 AUDIO TITLE "Peleus and Thetis" PERFORMER "Koan" ISRC GB5ML1200003 INDEX 01 00:00:00FILE "04 - Koan - Irida Falls to Morpheus' Pits.wav" WAVE TRACK 04 AUDIO TITLE "Irida Falls to Morpheus' Pits" PERFORMER "Koan" ISRC GB5ML1200004 INDEX 01 00:00:00FILE "05 - Koan - Crying Prozerpine [Blue mix].wav" WAVE TRACK 05 AUDIO TITLE "Crying Prozerpine [Blue mix]" PERFORMER "Koan" ISRC GB5ML1200005 INDEX 01 00:00:00FILE "06 - Koan - Pegasus.wav" WAVE TRACK 06 AUDIO TITLE "Pegasus" PERFORMER "Koan" ISRC GB5ML1200006 INDEX 01 00:00:00FILE "07 - Koan - In the Garden of the Hesperides [Golden Apples mix].wav" WAVE TRACK 07 AUDIO TITLE "In the Garden of the Hesperides [Golden Apples mix]" PERFORMER "Koan" ISRC GB5ML1200007 INDEX 01 00:00:00FILE "08 - Koan - Seven Mirrors of Atlas.wav" WAVE TRACK 08 AUDIO TITLE "Seven Mirrors of Atlas" PERFORMER "Koan" ISRC GB5ML1200008 INDEX 01 00:00:00FILE "09 - Koan - Ladon [Serpent mix].wav" WAVE TRACK 09 AUDIO TITLE "Ladon [Serpent mix]" PERFORMER "Koan" ISRC GB5ML1200009 INDEX 01 00:00:00

2012: Mitakuye Oyasin EP (WEB)

Жанр:Psybient, Downtempo, Ambient
Страна-производитель диска: Germany
Год издания диска: 2012
Дата выхода оригинального издания: 30 Dec 2012
Тип издания: WEB, EP
Издатель (лейбл): Plusquam Chillout
Номер по каталогу: PQCHILL078
Аудиокодек: FLAC (*.flac)
Битрейт аудио: lossless
Тип рипа: tracks
Продолжительность: 00:16:39
Наличие сканов в содержимом раздачи: Да (Front)
Треклист:
01 - Untitled (03:20)
02 - Theseus (08:31)
03 - Red Road (04:48)
http://www.junodownload.com/products/koan-mitakuye-oyasin/2922530-02/

Лог проверки качества

-----------------------
DON'T MODIFY THIS FILE
-----------------------
PERFORMER: auCDtect Task Manager, ver. 1.5.1RC6 build 1.5.1.7Copyright (c) 2008-2010 y-soft. All rights reservedhttp://y-soft.org
ANALYZER: auCDtect: CD records authenticity detector, version 0.8.2Copyright (c) 2004 Oleg Berngardt. All rights reserved.Copyright (c) 2004 Alexander Djourik. All rights reserved.
FILE: 03 - Red Road.flac Size: 38369343 Hash: 0F9EA48BAB5D59E0D72D97F041BBE51F Accuracy: -m0 Conclusion: CDDA 100% Signature: F15988BB9D31650474265D7E1A397CE3E0C82DD6FILE: 02 - Theseus.flac Size: 65856052 Hash: A79A325057DD7BA5DD2A23C3AC8F30F0 Accuracy: -m0 Conclusion: CDDA 100% Signature: A3F05775593BE09027FA336B76F12C77289824E1FILE: 01 - Untitled.flac Size: 26944507 Hash: C8B13F504CF47D58CBF3A6C0E948E388 Accuracy: -m0 Conclusion: CDDA 100% Signature: 69A5BC9430409E07A9B5ED88BF57E883C982B419

2012: La Incertezza (WEB)

Жанр: PsyChill, Dubstep, Breaks
Страна-производитель диска: Russia
Год издания диска: 2012
Дата выхода оригинального издания: 12 Dec 2012
Тип издания: WEB, Mini-Album
Издатель (лейбл): Blue Tunes Austria - BTRDR 190
Аудиокодек: FLAC (*.flac)
Битрейт аудио: lossless
Тип рипа: tracks
Продолжительность: 41:40
Наличие сканов в содержимом раздачи: Да (Front)
Треклист:
01 - La Incertezza (8:11)
02 - La Incertezza (Roeth & Grey White remix) (8:17)
03 - La Incertezza (Roeth & Grey Black remix) (7:13)
04 - La Incertezza (Black mix) (7:570
05 - La Incertezza (White mix) (5:56)
06 - La Incertezza (Daniel Roeth version) (4:06)
http://www.junodownload.com/products/koan-la-incertezza/2589420-02/

Лог проверки качества

-----------------------
DON'T MODIFY THIS FILE
-----------------------
PERFORMER: auCDtect Task Manager, ver. 1.6.0 RC1 build 1.6.0.1Copyright (c) 2008-2010 y-soft. All rights reservedhttp://y-soft.org
ANALYZER: auCDtect: CD records authenticity detector, version 0.8.2Copyright (c) 2004 Oleg Berngardt. All rights reserved.Copyright (c) 2004 Alexander Djourik. All rights reserved.
FILE: 06 - La Incertezza (Daniel Roeth version).flac Size: 28579425 Hash: 4EDB70AEA4AEF220E8CD3B7EB347F973 Accuracy: -m0 Conclusion: CDDA 100% Signature: 8D85E99FBBB05CBE0763A0630DC01A9E8AEFD7CEFILE: 05 - La Incertezza (White mix).flac Size: 43807565 Hash: BCBAC5819E19B2ACAAE0B9C467A944B5 Accuracy: -m0 Conclusion: CDDA 100% Signature: 6CF73462EF19848C57DBE71B993F12EE349A28F1FILE: 04 - La Incertezza (Black mix).flac Size: 58624190 Hash: 54A04AA5928E0F01BC3B702536CFC6DD Accuracy: -m0 Conclusion: CDDA 100% Signature: FD1B3340C7412EE8580879F847BD240FD71B6E4BFILE: 03 - La Incertezza (Roeth & Grey Black remix).flac Size: 57753097 Hash: 5F3C5346B0EF258AAC28660C7BAE5B3D Accuracy: -m0 Conclusion: CDDA 100% Signature: 61B22CFB0CE0E3E23235BAB8A565C79256F04A4AFILE: 02 - La Incertezza (Roeth & Grey White remix).flac Size: 65786699 Hash: 4C66A2EA46B4E18A88D6846532A2AF88 Accuracy: -m0 Conclusion: CDDA 100% Signature: CE6671AE75764A7B03992EEB9EE720BD3FA6BA1BFILE: 01 - La Incertezza.flac Size: 64444930 Hash: 345F4B48B883F87DA3056053A5BDF1CD Accuracy: -m0 Conclusion: CDDA 100% Signature: C1EC5E870A2D0557975552BE5E9196EC2765C4ED

2013: Works (WEB)

Жанр: Psybient, Downtempo, Ambient
Страна-производитель диска: Germany
Год выхода: 2013
Дата выхода оригинального издания: 2013
Тип издания: WEB, Compilation
Издатель (лейбл): Bloodsugar Plusquam
Каталожный номер: None
Аудиокодек: FLAC (*.flac)
Тип рипа: tracks
Продолжительность: 00:33:05
Наличие сканов в содержимом раздачи: Да (Front)
Треклист:
01 - Embroideress and Seven Star Bros (08:29)
02 - Untitled (03:20)
03 - Theseus (08:31)
04 - When Visible Becomes Invisible (07:57)
05 - Red Road (04:48)

Лог проверки качества

-----------------------
DON'T MODIFY THIS FILE
-----------------------
PERFORMER: auCDtect Task Manager, ver. 1.6.0 RC1 build 1.6.0.1Copyright (c) 2008-2010 y-soft. All rights reservedhttp://y-soft.org
ANALYZER: auCDtect: CD records authenticity detector, version 0.8.2Copyright (c) 2004 Oleg Berngardt. All rights reserved.Copyright (c) 2004 Alexander Djourik. All rights reserved.
FILE: 05 - Red Road.flac Size: 38597133 Hash: 0F9EA48BAB5D59E0D72D97F041BBE51F Accuracy: -m0 Conclusion: CDDA 100% Signature: 4D0E141A870C910FF68A9C25CE41080DEDBDE374FILE: 04 - When Visible Becomes Invisible.flac Size: 63851662 Hash: CFCDF48FD921CB4844BC0A3C25DF0AC0 Accuracy: -m0 Conclusion: CDDA 100% Signature: E62D5971672835C476F7110FE6DD5963BADFA749FILE: 03 - Theseus.flac Size: 66084066 Hash: A79A325057DD7BA5DD2A23C3AC8F30F0 Accuracy: -m0 Conclusion: CDDA 100% Signature: 65B3746603E705D7662195FA7AC335BE0A95A9DFFILE: 02 - Untitled.flac Size: 27172106 Hash: C8B13F504CF47D58CBF3A6C0E948E388 Accuracy: -m0 Conclusion: CDDA 100% Signature: FBDFDE5573B1905C11D631BF845E2A20A6322798FILE: 01 - Embroideress and Seven Star Bros.flac Size: 68096071 Hash: 2B63452E207AB749A9778AC56F928B6C Accuracy: -m0 Conclusion: CDDA 100% Signature: 9F8B227649414484303CDA2132BB275679F75D94

2013: When The Silence Is...

Жанр: PsyChill, Chillout, Downtempo, Ambient, Progressive Trance
Страна-производитель диска: Germany
Год издания диска: 2013
Дата выхода оригинального издания: 04 May 2013
Тип издания: CD, Album, Reissue
Лейбл: Blue Tunes Recordings
Номер по каталогу: BTRCD044
Аудиокодек: FLAC (*.flac)
Битрейт аудио: lossless
Тип рипа: tracks+.cue
Продолжительность CD1: 01:18:54
Продолжительность CD2: 01:18:56
Наличие сканов в содержимом раздачи: Да (.png, 600dpi)
Треклист:
CD1 - When The Silence Is Speaking
01 - Back To The Silent Lagoon (Blue Mix) (09:28)
02 - Selena's Song (Blue Mix) (10:57)
03 - After The Guiding Venus (07:57)
04 - The Island Of Deceased Ships (07:31)
05 - Dance Of Nereids (10:21)
06 - Odysseus Under The Old Tree (09:15)
07 - Underwater Moonlight (Blue Mix) (08:01)
08 - When The Silence Is Speaking (Blue Mix) (11:14)
09 - Dolphin And Eos (04:10)
CD2 - When The Silence Is Moving
01 - After The Guiding Venus (Fall Of Troy Mix) (09:36)
02 - When The Silence Is Moving (08:30)
03 - Crying Prozerpine (Summertime Mix) (07:58)
04 - The Island Of Deceased Ships (Symplegades Mix) (08:42)
05 - Dance Of Nereids (Triton Mosaic Mix) (08:21)
06 - Odysseus Under The Old Tree (Return To Itaka Mix) (08:25)
07 - Selena's Song (Hyperion Mix) (08:47)
08 - Back To The Silent Lagoon (Aeaea Mix) (09:19)
09 - Underwater Moonlight (Sunlight Shadows Mix) (09:18)

CD 1 - Лог создания рипа

Exact Audio Copy V1.0 beta 3 from 29. August 2011
EAC extraction logfile from 24. July 2013, 0:49
Koan / When The Silence Is... (CD1 - When The Silence Is Speaking)
Used drive : PIONEER DVD-RW DVR-218L Adapter: 2 ID: 0
Read mode : SecureUtilize accurate stream : YesDefeat audio cache : YesMake use of C2 pointers : No
Read offset correction : 6Overread into Lead-In and Lead-Out : NoFill up missing offset samples with silence : YesDelete leading and trailing silent blocks : NoNull samples used in CRC calculations : YesUsed interface : Native Win32 interface for Win NT & 2000Gap handling : Appended to previous track
Used output format : User Defined EncoderSelected bitrate : 1024 kBit/sQuality : HighAdd ID3 tag : NoCommand line compressor : C:\Program Files (x86)\Exact Audio Copy\Flac\flac.exeAdditional command line options : -V -8 -T "Genre=%genre%" -T "Artist=%artist%" -T "Title=%title%" -T "Album=%albumtitle%" -T "Date=%year%" -T "Tracknumber=%tracknr%" -T "Comment=%comment%" %source%
TOC of the extracted CD
Track | Start | Length | Start sector | End sector --------------------------------------------------------- 1 | 0:00.00 | 9:28.35 | 0 | 42634 2 | 9:28.35 | 10:56.45 | 42635 | 91879 3 | 20:25.05 | 7:56.68 | 91880 | 127647 4 | 28:21.73 | 7:31.26 | 127648 | 161498 5 | 35:53.24 | 10:21.24 | 161499 | 208097 6 | 46:14.48 | 9:14.52 | 208098 | 249699 7 | 55:29.25 | 8:01.33 | 249700 | 285807 8 | 63:30.58 | 11:14.24 | 285808 | 336381 9 | 74:45.07 | 4:10.35 | 336382 | 355166
Track 1
Filename D:\neki_chel,ncl,michigun,drakwn\Koan - When The Silence Is... (2CD) (Blue Tunes Rec. 2013) (Flac)\CD1 - When The Silence Is Speaking\01. Koan - Back To The Silent Lagoon (Blue Mix).wav
Pre-gap length 0:00:02.00
Peak level 100.0 % Extraction speed 1.4 X Track quality 100.0 % Test CRC D6E643CC Copy CRC D6E643CC Track not present in AccurateRip database Copy OK
Track 2
Filename D:\neki_chel,ncl,michigun,drakwn\Koan - When The Silence Is... (2CD) (Blue Tunes Rec. 2013) (Flac)\CD1 - When The Silence Is Speaking\02. Koan - Selena's Song (Blue Mix).wav
Pre-gap length 0:00:02.00
Peak level 100.0 % Extraction speed 1.7 X Track quality 100.0 % Test CRC C4B5C68F Copy CRC C4B5C68F Track not present in AccurateRip database Copy OK
Track 3
Filename D:\neki_chel,ncl,michigun,drakwn\Koan - When The Silence Is... (2CD) (Blue Tunes Rec. 2013) (Flac)\CD1 - When The Silence Is Speaking\03. Koan - After The Guiding Venus.wav
Pre-gap length 0:00:02.00
Peak level 100.0 % Extraction speed 1.9 X Track quality 100.0 % Test CRC FFB64B11 Copy CRC FFB64B11 Track not present in AccurateRip database Copy OK
Track 4
Filename D:\neki_chel,ncl,michigun,drakwn\Koan - When The Silence Is... (2CD) (Blue Tunes Rec. 2013) (Flac)\CD1 - When The Silence Is Speaking\04. Koan - The Island Of Deceased Ships.wav
Pre-gap length 0:00:02.00
Peak level 100.0 % Extraction speed 2.0 X Track quality 100.0 % Test CRC 8800770B Copy CRC 8800770B Track not present in AccurateRip database Copy OK
Track 5
Filename D:\neki_chel,ncl,michigun,drakwn\Koan - When The Silence Is... (2CD) (Blue Tunes Rec. 2013) (Flac)\CD1 - When The Silence Is Speaking\05. Koan - Dance Of Nereids.wav
Pre-gap length 0:00:02.00
Peak level 100.0 % Extraction speed 2.3 X Track quality 100.0 % Test CRC 32539FDE Copy CRC 32539FDE Track not present in AccurateRip database Copy OK
Track 6
Filename D:\neki_chel,ncl,michigun,drakwn\Koan - When The Silence Is... (2CD) (Blue Tunes Rec. 2013) (Flac)\CD1 - When The Silence Is Speaking\06. Koan - Odysseus Under The Old Tree.wav
Pre-gap length 0:00:02.00
Peak level 100.0 % Extraction speed 2.4 X Track quality 100.0 % Test CRC 167E0153 Copy CRC 167E0153 Track not present in AccurateRip database Copy OK
Track 7
Filename D:\neki_chel,ncl,michigun,drakwn\Koan - When The Silence Is... (2CD) (Blue Tunes Rec. 2013) (Flac)\CD1 - When The Silence Is Speaking\07. Koan - Underwater Moonlight (Blue Mix).wav
Pre-gap length 0:00:02.00
Peak level 100.0 % Extraction speed 2.5 X Track quality 100.0 % Test CRC EF35E891 Copy CRC EF35E891 Track not present in AccurateRip database Copy OK
Track 8
Filename D:\neki_chel,ncl,michigun,drakwn\Koan - When The Silence Is... (2CD) (Blue Tunes Rec. 2013) (Flac)\CD1 - When The Silence Is Speaking\08. Koan - When The Silence Is Speaking (Blue Mix).wav
Pre-gap length 0:00:02.00
Peak level 100.0 % Extraction speed 2.7 X Track quality 100.0 % Test CRC EDB4E96F Copy CRC EDB4E96F Track not present in AccurateRip database Copy OK
Track 9
Filename D:\neki_chel,ncl,michigun,drakwn\Koan - When The Silence Is... (2CD) (Blue Tunes Rec. 2013) (Flac)\CD1 - When The Silence Is Speaking\09. Koan - Dolphin And Eos.wav
Pre-gap length 0:00:02.00
Peak level 100.0 % Extraction speed 2.6 X Track quality 100.0 % Test CRC 6810C88B Copy CRC 6810C88B Track not present in AccurateRip database Copy OK
None of the tracks are present in the AccurateRip database
No errors occurred
End of status report
==== Log checksum 4BFF54C34819BD7ED712772B17AB2165B5BFEA3C0DA2F0F7A999F4A915D640B0 ====

CD 1 - Содержание индексной карты (.CUE)

REM GENRE ElectronicREM DATE 2013REM DISCID 77127F09REM COMMENT "ExactAudioCopy v1.0b3"CATALOG 4250250405605PERFORMER "Koan"TITLE "When The Silence Is... (CD1 - When The Silence Is Speaking)"FILE "01. Koan - Back To The Silent Lagoon (Blue Mix).wav" WAVE TRACK 01 AUDIO TITLE "Back To The Silent Lagoon (Blue Mix)" PERFORMER "Koan" ISRC


[galltoto.com]_t_5161562.torrent
Торрент: Зарегистрирован ·  [ 2019-01-07 11:59 ] ·  ea89b08d5a327df11e87902795cc4ee7f2f5412a

210 KB

Статус: проверено
Скачан: 0 раз
Размер: 28.38 GB
Оценка: 
(Голосов: 0)
Сказали спасибо: 0  Спасибо
Похожие темы
[Профиль]    [ЛС]
Показать сообщения:    
Ответить на тему

Текущее время: Сегодня 21:03

Часовой пояс: GMT + 7



Вы не можете начинать темы
Вы не можете отвечать на сообщения
Вы не можете редактировать свои сообщения
Вы не можете удалять свои сообщения
Вы не можете голосовать в опросах
Вы не можете прикреплять файлы к сообщениям
Вы можете скачивать файлы


Biru Band Pacar Yang Hilang | Freunde mit gewissen Vorzügen | Documentaire