(Acoustic, Prog Rock, Krautrock) [CD] Popol Vuh - Bruder Des Schattens - Sohne Des Lichts - 2006 (1978), FLAC (tracks+.cue), lossless

Ответить на тему
Статистика раздачи [Обновить пиров]
Размер:  178 MB   |    Зарегистрирован:  12 дней   |    Скачан:  0 раз

Полного источника не было: Никогда

 
   
 
 
 
Автор Сообщение

galltoto.com

Создавать темы 06-Янв-2019 19:42

[Цитировать]

Popol Vuh / Bruder Des Schattens - Sohne Des Lichts
Жанр: Acoustic, Prog Rock, Krautrock
Носитель: CD
Страна-производитель диска (релиза): Germany
Год издания: 2006 (1978)
Издатель (лейбл): SPV Recordings
Номер по каталогу: SPV 70212 CD
Аудиокодек: FLAC (*.flac)
Тип рипа: tracks+.cue
Битрейт аудио: lossless
Продолжительность: 00:40:34
Источник (релизер): локальная сеть
Наличие сканов в содержимом раздачи: нет
Треклист:
1 Brüder Des Schattens - Söhne Des Lichts
2 Höre, Der Du Wagst
3 Das Schloß Des Irrtums
4 Die Umkehr
Bonus Track:
5 Sing, For Songs Drive Away The Wolves

Лог создания рипа

Exact Audio Copy V0.99 prebeta 4 from 23. January 2008
EAC extraction logfile from 10. May 2008, 19:38
Popol Vuh / Bruder des Schattens - Sohne des Lichts
Used drive : LITE-ON DVDRW SHW-1635S Adapter: 2 ID: 0
Read mode : SecureUtilize accurate stream : YesDefeat audio cache : YesMake use of C2 pointers : No
Read offset correction : 6Overread into Lead-In and Lead-Out : NoFill up missing offset samples with silence : YesDelete leading and trailing silent blocks : NoNull samples used in CRC calculations : YesUsed interface : Native Win32 interface for Win NT & 2000Gap handling : Appended to previous track
Used output format : User Defined EncoderSelected bitrate : 128 kBit/sQuality : HighAdd ID3 tag : NoCommand line compressor : C:\Program Files\Exact Audio Copy\Flac\flac.exeAdditional command line options : -V -8 -T "artist=%a" -T "title=%t" -T "album=%g" -T "date=%y" -T "tracknumber=%n" -T "genre=%m" %s
TOC of the extracted CD
Track | Start | Length | Start sector | End sector --------------------------------------------------------- 1 | 0:00.00 | 18:49.67 | 0 | 84741 2 | 18:49.67 | 5:54.12 | 84742 | 111303 3 | 24:44.04 | 5:37.45 | 111304 | 136623 4 | 30:21.49 | 5:59.03 | 136624 | 163551 5 | 36:20.52 | 4:15.45 | 163552 | 182721
Track 1
Filename H:\EAC RIPS\Popol Vuh - 1978 - Bruder des Schattens - Sohne des Lichts\01 - Bruder des Schattens - Sohne des Lichts.wav
Pre-gap length 0:00:02.00
Peak level 76.9 % Track quality 100.0 % Test CRC 2BF98F68 Copy CRC 2BF98F68 Track not present in AccurateRip database Copy OK
Track 2
Filename H:\EAC RIPS\Popol Vuh - 1978 - Bruder des Schattens - Sohne des Lichts\02 - Hore, der du wagst.wav
Pre-gap length 0:00:01.98
Peak level 76.5 % Track quality 100.0 % Test CRC 7933063A Copy CRC 7933063A Track not present in AccurateRip database Copy OK
Track 3
Filename H:\EAC RIPS\Popol Vuh - 1978 - Bruder des Schattens - Sohne des Lichts\03 - Das Schloss des Irrtums.wav
Pre-gap length 0:00:01.98
Peak level 75.6 % Track quality 100.0 % Test CRC 8B688414 Copy CRC 8B688414 Track not present in AccurateRip database Copy OK
Track 4
Filename H:\EAC RIPS\Popol Vuh - 1978 - Bruder des Schattens - Sohne des Lichts\04 - Die Umkehr.wav
Pre-gap length 0:00:02.04
Peak level 78.6 % Track quality 100.0 % Test CRC 9B19A1FF Copy CRC 9B19A1FF Track not present in AccurateRip database Copy OK
Track 5
Filename H:\EAC RIPS\Popol Vuh - 1978 - Bruder des Schattens - Sohne des Lichts\05 - Sing, For Song Drives Away The Wolves.wav
Pre-gap length 0:00:01.86
Peak level 71.1 % Track quality 100.0 % Test CRC 191EA26D Copy CRC 191EA26D Track not present in AccurateRip database Copy OK
None of the tracks are present in the AccurateRip database
No errors occurred
End of status report

Содержание индексной карты (.CUE)

REM GENRE FolkREM DATE 1978REM DISCID 36098405REM COMMENT "ExactAudioCopy v0.99pb4"PERFORMER "Popol Vuh"TITLE "Bruder des Schattens - Sohne des Lichts"FILE "01 - Bruder des Schattens - Sohne des Lichts.wav" WAVE TRACK 01 AUDIO TITLE "Bruder des Schattens - Sohne des Lichts" PERFORMER "Popol Vuh" FLAGS DCP INDEX 01 00:00:00 TRACK 02 AUDIO TITLE "Hore, der du wagst" PERFORMER "Popol Vuh" FLAGS DCP INDEX 00 18:47:68FILE "02 - Hore, der du wagst.wav" WAVE INDEX 01 00:00:00 TRACK 03 AUDIO TITLE "Das Schloss des Irrtums" PERFORMER "Popol Vuh" FLAGS DCP INDEX 00 05:52:13FILE "03 - Das Schloss des Irrtums.wav" WAVE INDEX 01 00:00:00 TRACK 04 AUDIO TITLE "Die Umkehr" PERFORMER "Popol Vuh" FLAGS DCP INDEX 00 05:35:42FILE "04 - Die Umkehr.wav" WAVE INDEX 01 00:00:00 TRACK 05 AUDIO TITLE "Sing, For Song Drives Away The Wolves" PERFORMER "Popol Vuh" FLAGS DCP INDEX 00 05:57:13FILE "05 - Sing, For Song Drives Away The Wolves.wav" WAVE INDEX 01 00:00:00


[galltoto.com]_t_5662351.torrent
Торрент: Зарегистрирован ·  [ 2019-01-06 19:01 ] ·  0abebf6e624c73f62b197c5eb89823ce692cc72a

15 KB

Статус: проверено
Скачан: 0 раз
Размер: 178 MB
Оценка: 
(Голосов: 0)
Сказали спасибо: 0  Спасибо
Похожие темы
[Профиль]    [ЛС]
Показать сообщения:    
Ответить на тему

Текущее время: Сегодня 21:23

Часовой пояс: GMT + 7



Вы не можете начинать темы
Вы не можете отвечать на сообщения
Вы не можете редактировать свои сообщения
Вы не можете удалять свои сообщения
Вы не можете голосовать в опросах
Вы не можете прикреплять файлы к сообщениям
Вы можете скачивать файлы


épisode 6 | Communication Process - 560 Words | The Listener: Słyszący myśl...