(Progressive Rock / Fusion) [WEB] Spectrum Orchestrum - It\'s About Time - 2018, FLAC (tracks), lossless

Ответить на тему
Статистика раздачи [Обновить пиров]
Размер:  263 MB   |    Зарегистрирован:  1 месяц 15 дней   |    Скачан:  0 раз

Полного источника не было: Никогда

 
   
 
 
 
Автор Сообщение

galltoto.com

Создавать темы 06-Янв-2019 19:42

[Цитировать]

Spectrum Orchestrum / It's About Time
Жанр: Progressive Rock / Fusion
Носитель: WEB
Год издания: 2018
Издатель (лейбл): Web Release
Страна исполнителя (группы): France
Аудиокодек: FLAC (*.flac)
Тип рипа: tracks
Битрейт аудио: lossless
Продолжительность: 43:45 min
Источник (релизер): bandcamp.com
Наличие сканов в содержимом раздачи:
Треклист:
1. Three To One. 1:04
2. About Time (part 1, 2 & 3). 33:19
3. Not The End. 9:43

DRM.log

foobar2000 1.3.8 / Dynamic Range Meter 1.1.1log date: 2018-12-18 23:44:09
--------------------------------------------------------------------------------Analyzed: Spectrum Orchestrum / It's About Time--------------------------------------------------------------------------------
DR Peak RMS Duration Track--------------------------------------------------------------------------------DR7 -0.25 dB -8.21 dB 1:00 01-Three to OneDR7 -2.61 dB -11.74 dB 33:07 02-About Time (Part 1, 2 & 3)DR4 -1.61 dB -9.03 dB 9:39 03-Not the End--------------------------------------------------------------------------------
Number of tracks: 3Official DR value: DR6
Samplerate: 44100 HzChannels: 2Bits per sample: 16Bitrate: 769 kbpsCodec: FLAC================================================================================

Лог проверки качества

-----------------------
DON'T MODIFY THIS FILE
-----------------------
PERFORMER: auCDtect Task Manager, ver. 1.6.0 RC1 build 1.6.0.1Copyright (c) 2008-2010 y-soft. All rights reservedhttp://y-soft.org
ANALYZER: auCDtect: CD records authenticity detector, version 0.8.2Copyright (c) 2004 Oleg Berngardt. All rights reserved.Copyright (c) 2004 Alexander Djourik. All rights reserved.
FILE: 01 - Three to One.flac Size: 7792085 Hash: 70A1BEA778C04BC28F8EC30A67FC329D Accuracy: -m0 Conclusion: CDDA 100% Signature: F2F69AC6CB4834E0C0DDD0F9A1EEE4833415E45FFILE: 02 - About Time (Part 1, 2 & 3).flac Size: 211912781 Hash: DE964A7E1EE2BFE856E9AEE3AFF0BC5E Accuracy: -m0 Conclusion: CDDA 100% Signature: 8CE134DB1F24300D23A3B898F1B4121577297A12FILE: 03 - Not the End.flac Size: 55796369 Hash: FCDCA2A5B1C2A4B6BC574FCC818FE721 Accuracy: -m0 Conclusion: CDDA 100% Signature: 0EB47043919CF23158E539C8D8B22B74C4227739

Об альбоме (сборнике)

All sounds improvised by Spectrum Orchestrum at Jean-Pierre's Mansion from March 10 to 12, 2017.
Recorded, mixed and mastered by Ludovic Sirtaine and Fano Ramic for Bang Bang.
released October 1, 2018


[galltoto.com]_t_5662408.torrent
Торрент: Зарегистрирован ·  [ 2019-01-06 19:01 ] ·  2e2bb7169d9268503d8ddc755db406bb9e15d310

11 KB

Статус: проверено
Скачан: 0 раз
Размер: 263 MB
Оценка: 
(Голосов: 0)
Сказали спасибо: 0  Спасибо
Похожие темы
[Профиль]    [ЛС]
Показать сообщения:    
Ответить на тему

Текущее время: Сегодня 19:30

Часовой пояс: GMT + 7



Вы не можете начинать темы
Вы не можете отвечать на сообщения
Вы не можете редактировать свои сообщения
Вы не можете удалять свои сообщения
Вы не можете голосовать в опросах
Вы не можете прикреплять файлы к сообщениям
Вы можете скачивать файлы


Télécharger ! | The Date Night season 06 episode 01 | Killjoys