(Experimental) [CD] Popol Vuh - City Raga - 1995, FLAC (tracks+.cue), lossless

Ответить на тему
Статистика раздачи [Обновить пиров]
Размер:  324 MB   |    Зарегистрирован:  12 дней   |    Скачан:  0 раз

Полного источника не было: Никогда

 
   
 
 
 
Автор Сообщение

galltoto.com

Создавать темы 06-Янв-2019 19:41

[Цитировать]

Popol Vuh / City Raga
Жанр: Experimental
Носитель: CD
Страна-производитель диска (релиза): US
Год издания: 1995
Издатель (лейбл): Milan ‎
Номер по каталогу: 73138 35685-2
Аудиокодек: FLAC (*.flac)
Тип рипа: tracks+.cue
Битрейт аудио: lossless
Продолжительность: 00:46:20
Источник (релизер): локальная сеть
Наличие сканов в содержимом раздачи: да
Треклист:
1 Wanted Maya
2 Tears Of Concrete
3 Last Village
4 City Raga
5 Morning Raga
6 Running Deep
7 City Raga (Mystic House Mix)

Лог создания рипа

Exact Audio Copy V0.99 prebeta 4 from 23. January 2008
EAC extraction logfile from 14. June 2009, 18:02
Popol Vuh / City Raga
Used drive : HL-DT-STDVDRAM GSA-4167B Adapter: 3 ID: 0
Read mode : SecureUtilize accurate stream : YesDefeat audio cache : YesMake use of C2 pointers : No
Read offset correction : 667Overread into Lead-In and Lead-Out : NoFill up missing offset samples with silence : YesDelete leading and trailing silent blocks : NoNull samples used in CRC calculations : YesUsed interface : Native Win32 interface for Win NT & 2000Gap handling : Appended to previous track
Used output format : Internal WAV RoutinesSample format : 44.100 Hz; 16 Bit; Stereo
TOC of the extracted CD
Track | Start | Length | Start sector | End sector --------------------------------------------------------- 1 | 0:00.32 | 6:58.20 | 32 | 31401 2 | 6:58.52 | 5:30.70 | 31402 | 56221 3 | 12:29.47 | 7:10.18 | 56222 | 88489 4 | 19:39.65 | 8:11.65 | 88490 | 125379 5 | 27:51.55 | 5:39.22 | 125380 | 150826 6 | 33:31.02 | 6:04.38 | 150827 | 178164 7 | 39:35.40 | 6:48.07 | 178165 | 208771
Track 1
Filename G:\Popol Vuh - City Raga (1995) {Milan Record Label}\01 - Wanted Maya.wav
Pre-gap length 0:00:02.42
Peak level 99.6 % Track quality 100.0 % Test CRC FA53E585 Copy CRC FA53E585 Cannot be verified as accurate (confidence 3) [D1A05CEB], AccurateRip returned [040D3514] Copy OK
Track 2
Filename G:\Popol Vuh - City Raga (1995) {Milan Record Label}\02 - Tears of Concrete.wav
Peak level 97.0 % Track quality 100.0 % Test CRC 91451F2C Copy CRC 91451F2C Cannot be verified as accurate (confidence 3) [A0D39470], AccurateRip returned [A0DD32D0] Copy OK
Track 3
Filename G:\Popol Vuh - City Raga (1995) {Milan Record Label}\03 - Last Village.wav
Peak level 99.6 % Track quality 100.0 % Test CRC 7C96848C Copy CRC 7C96848C Cannot be verified as accurate (confidence 3) [6FB5CB7C], AccurateRip returned [AC7E5441] Copy OK
Track 4
Filename G:\Popol Vuh - City Raga (1995) {Milan Record Label}\04 - City Raga.wav
Peak level 99.6 % Track quality 100.0 % Test CRC 51F0D871 Copy CRC 51F0D871 Cannot be verified as accurate (confidence 3) [6E330087], AccurateRip returned [3455546C] Copy OK
Track 5
Filename G:\Popol Vuh - City Raga (1995) {Milan Record Label}\05 - Morning Raga.wav
Pre-gap length 0:00:00.53
Peak level 99.6 % Track quality 100.0 % Test CRC DEE22746 Copy CRC DEE22746 Cannot be verified as accurate (confidence 3) [54E37ED7], AccurateRip returned [AC34BF1E] Copy OK
Track 6
Filename G:\Popol Vuh - City Raga (1995) {Milan Record Label}\06 - Running Deep.wav
Peak level 99.6 % Track quality 100.0 % Test CRC 7FD8292A Copy CRC 7FD8292A Cannot be verified as accurate (confidence 3) [C3C19F68], AccurateRip returned [8E90160E] Copy OK
Track 7
Filename G:\Popol Vuh - City Raga (1995) {Milan Record Label}\07 - City Raga (Mystic House Mix).wav
Pre-gap length 0:00:01.88
Peak level 99.6 % Track quality 100.0 % Test CRC C3617B1F Copy CRC C3617B1F Cannot be verified as accurate (confidence 3) [B5900AEA], AccurateRip returned [8990E39E] Copy OK
No tracks could be verified as accurateYou may have a different pressing from the one(s) in the database
No errors occurred
End of status report

Содержание индексной карты (.CUE)

REM DISCID 4A0ADF07REM COMMENT "ExactAudioCopy v0.99pb4"PERFORMER "Popol Vuh"TITLE "City Raga"FILE "01 - Wanted Maya.wav" WAVE TRACK 01 AUDIO TITLE "Wanted Maya" PERFORMER "Popol Vuh" PREGAP 00:00:32 INDEX 01 00:00:00FILE "02 - Tears of Concrete.wav" WAVE TRACK 02 AUDIO TITLE "Tears of Concrete" PERFORMER "Popol Vuh" INDEX 01 00:00:00FILE "03 - Last Village.wav" WAVE TRACK 03 AUDIO TITLE "Last Village" PERFORMER "Popol Vuh" INDEX 01 00:00:00FILE "04 - City Raga.wav" WAVE TRACK 04 AUDIO TITLE "City Raga" PERFORMER "Popol Vuh" INDEX 01 00:00:00 TRACK 05 AUDIO TITLE "Morning Raga" PERFORMER "Popol Vuh" INDEX 00 08:11:25FILE "05 - Morning Raga.wav" WAVE INDEX 01 00:00:00FILE "06 - Running Deep.wav" WAVE TRACK 06 AUDIO TITLE "Running Deep" PERFORMER "Popol Vuh" INDEX 01 00:00:00 TRACK 07 AUDIO TITLE "City Raga (Mystic House Mix)" PERFORMER "Popol Vuh" INDEX 00 06:02:47FILE "07 - City Raga (Mystic House Mix).wav" WAVE INDEX 01 00:00:00


[galltoto.com]_t_5664925.torrent
Торрент: Зарегистрирован ·  [ 2019-01-06 19:01 ] ·  b714488597599127771d4f7543db9d9fe173d5b3

14 KB

Статус: проверено
Скачан: 0 раз
Размер: 324 MB
Оценка: 
(Голосов: 0)
Сказали спасибо: 0  Спасибо
Похожие темы
[Профиль]    [ЛС]
Показать сообщения:    
Ответить на тему

Текущее время: Сегодня 20:51

Часовой пояс: GMT + 7



Вы не можете начинать темы
Вы не можете отвечать на сообщения
Вы не можете редактировать свои сообщения
Вы не можете удалять свои сообщения
Вы не можете голосовать в опросах
Вы не можете прикреплять файлы к сообщениям
Вы можете скачивать файлы


Vintage Original Thorlux Grey Enamel Industrial Pendant Lights  | Diamond no Ace OVA Episode 5 English Subbed | Dream League APK