(Alt.-Rock, New Wave, Art Rock) [CD] Faust\'o - Suicidio/Poco zucchero - 1978-1979-2012, FLAC (tracks+.cue), lossless

Ответить на тему
Статистика раздачи [Обновить пиров]
Размер:  452 MB   |    Зарегистрирован:  1 месяц 15 дней   |    Скачан:  0 раз

Полного источника не было: Никогда

 
   
 
 
 
Автор Сообщение

galltoto.com

Создавать темы 06-Янв-2019 19:41

[Цитировать]

Faust'o / Suicidio/Poco zucchero Жанр: Alt.-Rock, New Wave, Art Rock
Носитель: CD
Страна-производитель диска (релиза): IT
Год издания: 1978-1979-2012
Издатель (лейбл): Rhino
Номер по каталогу: 5053105-0247-5-9
Страна исполнителя (группы): IT
Аудиокодек: FLAC (*.flac)
Тип рипа: tracks+.cue
Битрейт аудио: lossless
Продолжительность: 1:12:28
Источник (релизер): Mdye56
Наличие сканов в содержимом раздачи: да
Треклист:
Suicidio (1978)
01 Intro [3:05]
02 Suicidio [3:39]
03 Godi [3:24]
04 Bastardi [3:20]
05 Piccolo Lord [5:42]
06 Eccolo qua [2:59]
07 Il mio sesso [4:02]
08 C'è un posto caldo [3:22]
09 Innocenza [3:01]
10 Benvenuti tra i rifiuti [6:31]
Poco zucchero (1979)
11 Vincent Price [3:54]
12 Cosa rimane [2:54]
13 Attori malinconici [4:24]
14 Oh! Oh! Oh! [4:13]
15 In tua assenza [3:08]
16 Kleenex [3:10]
17 Il lungo addio [3:55]
18 Funerale a Praga [7:09]

.log

X Lossless Decoder version 20140504 (147.0)
XLD extraction logfile from 2014-10-05 10:30:13 +0200
Faust'O / Suicidio - Poco Zucchero
Used drive : HL-DT-ST DVDRW GX40N (revision RQ00)Media type : Pressed CD
Ripper mode : XLD Secure RipperDisable audio cache : OK for the drive with a cache less than 1375KiBMake use of C2 pointers : NORead offset correction : 6Max retry count : 100Gap status : Analyzed, Appended (except HTOA)
TOC of the extracted CD Track | Start | Length | Start sector | End sector --------------------------------------------------------- 1 | 00:00:00 | 03:05:30 | 0 | 13904 2 | 03:05:30 | 03:39:32 | 13905 | 30361 3 | 06:44:62 | 03:24:19 | 30362 | 45680 4 | 10:09:06 | 03:20:37 | 45681 | 60717 5 | 13:29:43 | 05:42:57 | 60718 | 86424 6 | 19:12:25 | 02:59:73 | 86425 | 99922 7 | 22:12:23 | 04:02:53 | 99923 | 118125 8 | 26:15:01 | 03:22:06 | 118126 | 133281 9 | 29:37:07 | 03:01:25 | 133282 | 146881 10 | 32:38:32 | 06:34:46 | 146882 | 176477 11 | 39:13:03 | 03:57:72 | 176478 | 194324 12 | 43:11:00 | 02:58:18 | 194325 | 207692 13 | 46:09:18 | 04:27:69 | 207693 | 227786 14 | 50:37:12 | 04:16:49 | 227787 | 247035 15 | 54:53:61 | 03:12:01 | 247036 | 261436 16 | 58:05:62 | 03:13:43 | 261437 | 275954 17 | 61:19:30 | 03:59:06 | 275955 | 293885 18 | 65:18:36 | 07:09:49 | 293886 | 326109
AccurateRip Summary (DiscID: 002cf3db-025d3bc2-0c10fc12) Track 01 : OK (v2, confidence 1/1) Track 02 : OK (v2, confidence 1/1) Track 03 : OK (v2, confidence 1/1) Track 04 : OK (v2, confidence 1/1) Track 05 : OK (v2, confidence 1/1) Track 06 : OK (v2, confidence 1/1) Track 07 : OK (v2, confidence 1/1) Track 08 : OK (v2, confidence 1/1) Track 09 : OK (v2, confidence 1/1) Track 10 : OK (v2, confidence 1/1) Track 11 : OK (v2, confidence 1/1) Track 12 : OK (v2, confidence 1/1) Track 13 : OK (v2, confidence 1/1) Track 14 : OK (v2, confidence 1/1) Track 15 : OK (v2, confidence 1/1) Track 16 : OK (v2, confidence 1/1) Track 17 : OK (v2, confidence 1/1) Track 18 : OK (v2, confidence 1/1) ->All tracks accurately ripped.
All Tracks Album gain : -5.14 dB Peak : 0.999969 Statistics Read error : 0 Jitter error (maybe fixed) : 0 Retry sector count : 0 Damaged sector count : 0
Track 01 Filename : /Users/XLD/01 - Intro.flac Pre-gap length : 00:02:00
Track gain : -2.97 dB Peak : 0.834564 CRC32 hash (test run) : 0E398CE7 CRC32 hash : 0E398CE7 CRC32 hash (skip zero) : F8625836 AccurateRip v1 signature : BD4EDAD2 AccurateRip v2 signature : 78239B9E ->Accurately ripped (v2, confidence 1/1) Statistics Read error : 0 Jitter error (maybe fixed) : 0 Retry sector count : 0 Damaged sector count : 0
Track 02 Filename : /Users/XLD/02 - Suicidio.flac
Track gain : -6.03 dB Peak : 0.930786 CRC32 hash (test run) : 994FEB63 CRC32 hash : 994FEB63 CRC32 hash (skip zero) : D794B6F1 AccurateRip v1 signature : 36C934A7 AccurateRip v2 signature : CBA83E1C ->Accurately ripped (v2, confidence 1/1) Statistics Read error : 0 Jitter error (maybe fixed) : 0 Retry sector count : 0 Damaged sector count : 0
Track 03 Filename : /Users/XLD/03 - Godi.flac
Track gain : -5.75 dB Peak : 0.895691 CRC32 hash (test run) : 47F535F6 CRC32 hash : 47F535F6 CRC32 hash (skip zero) : 2A42A415 AccurateRip v1 signature : BD01DA83 AccurateRip v2 signature : 22B2B59D ->Accurately ripped (v2, confidence 1/1) Statistics Read error : 0 Jitter error (maybe fixed) : 0 Retry sector count : 0 Damaged sector count : 0
Track 04 Filename : /Users/XLD/04 - Bastardi.flac
Track gain : -4.96 dB Peak : 0.847687 CRC32 hash (test run) : 78CDD37F CRC32 hash : 78CDD37F CRC32 hash (skip zero) : E6EC360B AccurateRip v1 signature : 3189CA1C AccurateRip v2 signature : 5F5A24CF ->Accurately ripped (v2, confidence 1/1) Statistics Read error : 0 Jitter error (maybe fixed) : 0 Retry sector count : 0 Damaged sector count : 0
Track 05 Filename : /Users/XLD/05 - Piccolo Lord.flac
Track gain : -7.17 dB Peak : 0.862549 CRC32 hash (test run) : 3220A081 CRC32 hash : 3220A081 CRC32 hash (skip zero) : 4815A270 AccurateRip v1 signature : C827436F AccurateRip v2 signature : 7971009F ->Accurately ripped (v2, confidence 1/1) Statistics Read error : 0 Jitter error (maybe fixed) : 0 Retry sector count : 0 Damaged sector count : 0
Track 06 Filename : /Users/XLD/06 - Eccolo Qua.flac
Track gain : -6.70 dB Peak : 0.937042 CRC32 hash (test run) : F75F483E CRC32 hash : F75F483E CRC32 hash (skip zero) : 770A8D99 AccurateRip v1 signature : A261A675 AccurateRip v2 signature : AF084600 ->Accurately ripped (v2, confidence 1/1) Statistics Read error : 0 Jitter error (maybe fixed) : 0 Retry sector count : 0 Damaged sector count : 0
Track 07 Filename : /Users/XLD/07 - Il Mio Sesso.flac
Track gain : -4.31 dB Peak : 0.915985 CRC32 hash (test run) : BF47A6D1 CRC32 hash : BF47A6D1 CRC32 hash (skip zero) : 041639A7 AccurateRip v1 signature : 1467E515 AccurateRip v2 signature : A68C6551 ->Accurately ripped (v2, confidence 1/1) Statistics Read error : 0 Jitter error (maybe fixed) : 0 Retry sector count : 0 Damaged sector count : 0
Track 08 Filename : /Users/XLD/08 - C'e' Un Posto Caldo.flac
Track gain : -5.14 dB Peak : 0.897644 CRC32 hash (test run) : 02E862E8 CRC32 hash : 02E862E8 CRC32 hash (skip zero) : AD6F7A58 AccurateRip v1 signature : B987E669 AccurateRip v2 signature : F133D183 ->Accurately ripped (v2, confidence 1/1) Statistics Read error : 0 Jitter error (maybe fixed) : 0 Retry sector count : 0 Damaged sector count : 0
Track 09 Filename : /Users/XLD/09 - Innocenza.flac
Track gain : -4.78 dB Peak : 0.877319 CRC32 hash (test run) : F30A70F0 CRC32 hash : F30A70F0 CRC32 hash (skip zero) : 8C49B38C AccurateRip v1 signature : 9FD5A938 AccurateRip v2 signature : E0795F90 ->Accurately ripped (v2, confidence 1/1) Statistics Read error : 0 Jitter error (maybe fixed) : 0 Retry sector count : 0 Damaged sector count : 0
Track 10 Filename : /Users/XLD/10 - Benvenuti Tra I Rifiuti.flac
Track gain : -6.16 dB Peak : 0.945770 CRC32 hash (test run) : FC3054FD CRC32 hash : FC3054FD CRC32 hash (skip zero) : C8A13B17 AccurateRip v1 signature : 732761B8 AccurateRip v2 signature : 58D5FF39 ->Accurately ripped (v2, confidence 1/1) Statistics Read error : 0 Jitter error (maybe fixed) : 0 Retry sector count : 0 Damaged sector count : 0
Track 11 Filename : /Users/XLD/11 - Vincent Price.flac Pre-gap length : 00:03:38
Track gain : -4.01 dB Peak : 0.866821 CRC32 hash (test run) : 78AB4FC2 CRC32 hash : 78AB4FC2 CRC32 hash (skip zero) : 9BE6244C AccurateRip v1 signature : BFC576BC AccurateRip v2 signature : DC626A71 ->Accurately ripped (v2, confidence 1/1) Statistics Read error : 0 Jitter error (maybe fixed) : 0 Retry sector count : 0 Damaged sector count : 0
Track 12 Filename : /Users/XLD/12 - Cosa Rimane.flac Pre-gap length : 00:03:16
Track gain : -2.81 dB Peak : 0.863098 CRC32 hash (test run) : EC1DA0C2 CRC32 hash : EC1DA0C2 CRC32 hash (skip zero) : 70F4D010 AccurateRip v1 signature : 49B117E7 AccurateRip v2 signature : BB4AB50C ->Accurately ripped (v2, confidence 1/1) Statistics Read error : 0 Jitter error (maybe fixed) : 0 Retry sector count : 0 Damaged sector count : 0
Track 13 Filename : /Users/XLD/13 - Attori Malinconici.flac Pre-gap length : 00:03:28
Track gain : -0.81 dB Peak : 0.953278 CRC32 hash (test run) : 102BBF8F CRC32 hash : 102BBF8F CRC32 hash (skip zero) : D481DE08 AccurateRip v1 signature : B6680B55 AccurateRip v2 signature : E6F5A7C3 ->Accurately ripped (v2, confidence 1/1) Statistics Read error : 0 Jitter error (maybe fixed) : 0 Retry sector count : 0 Damaged sector count : 0
Track 14 Filename : /Users/XLD/14 - Oh! Oh! Oh!.flac Pre-gap length : 00:03:20
Track gain : -2.04 dB Peak : 0.999969 CRC32 hash (test run) : 98D0D6A1 CRC32 hash : 98D0D6A1 CRC32 hash (skip zero) : C064790D AccurateRip v1 signature : 9D047B21 AccurateRip v2 signature : 2AF20FAF ->Accurately ripped (v2, confidence 1/1) Statistics Read error : 0 Jitter error (maybe fixed) : 0 Retry sector count : 0 Damaged sector count : 0
Track 15 Filename : /Users/XLD/15 - In Tua Assenza.flac Pre-gap length : 00:03:20
Track gain : -1.77 dB Peak : 0.788544 CRC32 hash (test run) : BC818DC2 CRC32 hash : BC818DC2 CRC32 hash (skip zero) : 635F6A06 AccurateRip v1 signature : 6282D509 AccurateRip v2 signature : 2D6D1438 ->Accurately ripped (v2, confidence 1/1) Statistics Read error : 0 Jitter error (maybe fixed) : 0 Retry sector count : 0 Damaged sector count : 0
Track 16 Filename : /Users/XLD/16 - Kleenex.flac Pre-gap length : 00:03:19
Track gain : 2.56 dB Peak : 0.693085 CRC32 hash (test run) : 5B3EDA3D CRC32 hash : 5B3EDA3D CRC32 hash (skip zero) : 43A3719C AccurateRip v1 signature : BCCEC340 AccurateRip v2 signature : 9EDEC1EF ->Accurately ripped (v2, confidence 1/1) Statistics Read error : 0 Jitter error (maybe fixed) : 0 Retry sector count : 0 Damaged sector count : 0
Track 17 Filename : /Users/XLD/17 - Il Lungo Addio.flac Pre-gap length : 00:03:15
Track gain : -1.57 dB Peak : 0.823456 CRC32 hash (test run) : 8D652BAD CRC32 hash : 8D652BAD CRC32 hash (skip zero) : D095BD08 AccurateRip v1 signature : 66946A6D AccurateRip v2 signature : E4BD26CA ->Accurately ripped (v2, confidence 1/1) Statistics Read error : 0 Jitter error (maybe fixed) : 0 Retry sector count : 0 Damaged sector count : 0
Track 18 Filename : /Users/XLD/18 - Funerale A Praga.flac Pre-gap length : 00:03:11
Track gain : -0.78 dB Peak : 0.873779 CRC32 hash (test run) : 864AD8CB CRC32 hash : 864AD8CB CRC32 hash (skip zero) : 6C151044 AccurateRip v1 signature : DBA1175E AccurateRip v2 signature : 5F18A382 ->Accurately ripped (v2, confidence 1/1) Statistics Read error : 0 Jitter error (maybe fixed) : 0 Retry sector count : 0 Damaged sector count : 0
No errors occurred
End of status report
-----BEGIN XLD SIGNATURE-----0hI5iHEC6oA8jhSMu2We6QdIt27kWA9CXrL2g9I9wC7IeTKhPz5Ly0bVr1BnsEC.wF3PddC1KRiE91AiiywZuL0wz9pkmbVbugGkqvm-----END XLD SIGNATURE-----

.cue

TITLE "Suicidio - Poco Zucchero"PERFORMER "Faust'O"CATALOG 5053105024759REM GENRE "Pop"REM DISCNUMBER 1REM TOTALDISCS 1REM DISCID 0C10FC12FILE "01 - Intro.wav" WAVE TRACK 01 AUDIO TITLE "Intro" ISRC ITR007800011 REM DATE "1978" INDEX 01 00:00:00FILE "02 - Suicidio.wav" WAVE TRACK 02 AUDIO TITLE "Suicidio" ISRC ITR007800021 REM DATE "1978" INDEX 01 00:00:00FILE "03 - Godi.wav" WAVE TRACK 03 AUDIO TITLE "Godi" ISRC ITR007800031 REM DATE "1978" INDEX 01 00:00:00FILE "04 - Bastardi.wav" WAVE TRACK 04 AUDIO TITLE "Bastardi" ISRC ITR007800041 REM DATE "1978" INDEX 01 00:00:00FILE "05 - Piccolo Lord.wav" WAVE TRACK 05 AUDIO TITLE "Piccolo Lord" ISRC ITR007800051 REM DATE "1978" INDEX 01 00:00:00FILE "06 - Eccolo Qua.wav" WAVE TRACK 06 AUDIO TITLE "Eccolo Qua" ISRC ITR007800061 REM DATE "1978" INDEX 01 00:00:00FILE "07 - Il Mio Sesso.wav" WAVE TRACK 07 AUDIO TITLE "Il Mio Sesso" ISRC ITR007800071 REM DATE "1978" INDEX 01 00:00:00FILE "08 - C'e' Un Posto Caldo.wav" WAVE TRACK 08 AUDIO TITLE "C'e' Un Posto Caldo" ISRC ITR007800081 REM DATE "1978" INDEX 01 00:00:00FILE "09 - Innocenza.wav" WAVE TRACK 09 AUDIO TITLE "Innocenza" ISRC ITR007800091 REM DATE "1978" INDEX 01 00:00:00FILE "10 - Benvenuti Tra I Rifiuti.wav" WAVE TRACK 10 AUDIO TITLE "Benvenuti Tra I Rifiuti" ISRC ITR007800101 REM DATE "1978" INDEX 01 00:00:00 TRACK 11 AUDIO TITLE "Vincent Price" ISRC ITR007900661 REM DATE "1979" INDEX 00 06:31:08FILE "11 - Vincent Price.wav" WAVE INDEX 01 00:00:00 TRACK 12 AUDIO TITLE "Cosa Rimane" ISRC ITR007900682 REM DATE "1979" INDEX 00 03:54:56FILE "12 - Cosa Rimane.wav" WAVE INDEX 01 00:00:00 TRACK 13 AUDIO TITLE "Attori Malinconici" ISRC ITR007900681 REM DATE "1979" INDEX 00 02:54:65FILE "13 - Attori Malinconici.wav" WAVE INDEX 01 00:00:00 TRACK 14 AUDIO TITLE "Oh! Oh! Oh!" ISRC ITR007900662 REM DATE "1979" INDEX 00 04:24:49FILE "14 - Oh! Oh! Oh!.wav" WAVE INDEX 01 00:00:00 TRACK 15 AUDIO TITLE "In Tua Assenza" ISRC ITR007900664 REM DATE "1979" INDEX 00 04:13:29FILE "15 - In Tua Assenza.wav" WAVE INDEX 01 00:00:00 TRACK 16 AUDIO TITLE "Kleenex" ISRC ITR007900683 REM DATE "1979" INDEX 00 03:08:57FILE "16 - Kleenex.wav" WAVE INDEX 01 00:00:00 TRACK 17 AUDIO TITLE "Il Lungo Addio" ISRC ITR007900665 REM DATE "1979" INDEX 00 03:10:28FILE "17 - Il Lungo Addio.wav" WAVE INDEX 01 00:00:00 TRACK 18 AUDIO TITLE "Funerale A Praga" ISRC ITR007900666 REM DATE "1979" INDEX 00 03:55:70FILE "18 - Funerale A Praga.wav" WAVE INDEX 01 00:00:00

CUETools

[CUETools log; Date: 23/12/2018 21:34:34; Version: 2.1.6][CTDB TOCID: xdAEp0jodO1jrOuRaXMHiu8A7o4-] found.Track | CTDB Status 1 | (7/7) Accurately ripped 2 | (7/7) Accurately ripped 3 | (7/7) Accurately ripped 4 | (7/7) Accurately ripped 5 | (7/7) Accurately ripped 6 | (7/7) Accurately ripped 7 | (7/7) Accurately ripped 8 | (7/7) Accurately ripped 9 | (7/7) Accurately ripped 10 | (7/7) Accurately ripped 11 | (7/7) Accurately ripped 12 | (7/7) Accurately ripped 13 | (7/7) Accurately ripped 14 | (7/7) Accurately ripped 15 | (7/7) Accurately ripped 16 | (7/7) Accurately ripped 17 | (7/7) Accurately ripped 18 | (7/7) Accurately ripped[AccurateRip ID: 002cf3db-025d3bc2-0c10fc12] found.Track [ CRC | V2 ] Status 01 [bd4edad2|78239b9e] (0+3/3) Accurately ripped 02 [36c934a7|cba83e1c] (0+4/4) Accurately ripped 03 [bd01da83|22b2b59d] (0+3/3) Accurately ripped 04 [3189ca1c|5f5a24cf] (0+3/3) Accurately ripped 05 [c827436f|7971009f] (0+3/3) Accurately ripped 06 [a261a675|af084600] (0+3/3) Accurately ripped 07 [1467e515|a68c6551] (0+3/3) Accurately ripped 08 [b987e669|f133d183] (0+3/3) Accurately ripped 09 [9fd5a938|e0795f90] (0+3/3) Accurately ripped 10 [732761b8|58d5ff39] (0+3/3) Accurately ripped 11 [bfc576bc|dc626a71] (0+3/3) Accurately ripped 12 [49b117e7|bb4ab50c] (0+3/3) Accurately ripped 13 [b6680b55|e6f5a7c3] (0+3/3) Accurately ripped 14 [9d047b21|2af20faf] (0+4/4) Accurately ripped 15 [6282d509|2d6d1438] (0+3/3) Accurately ripped 16 [bccec340|9edec1ef] (0+3/3) Accurately ripped 17 [66946a6d|e4bd26ca] (0+3/3) Accurately ripped 18 [dba1175e|5f18a382] (0+3/3) Accurately ripped
Track Peak [ CRC32 ] [W/O NULL] -- 100,0 [FBFF10B6] [9F348365] 01 83,4 [0E398CE7] [F8625836] 02 93,0 [994FEB63] [D794B6F1] 03 89,5 [47F535F6] [2A42A415] 04 84,7 [78CDD37F] [E6EC360B] 05 86,2 [3220A081] [4815A270] 06 93,7 [F75F483E] [770A8D99] 07 91,5 [BF47A6D1] [041639A7] 08 89,7 [02E862E8] [AD6F7A58] 09 87,7 [F30A70F0] [8C49B38C] 10 94,5 [FC3054FD] [C8A13B17] 11 86,6 [78AB4FC2] [9BE6244C] 12 86,3 [EC1DA0C2] [70F4D010] 13 95,3 [102BBF8F] [D481DE08] 14 100,0 [98D0D6A1] [C064790D] 15 78,8 [BC818DC2] [635F6A06] 16 69,3 [5B3EDA3D] [43A3719C] 17 82,3 [8D652BAD] [D095BD08] 18 87,3 [864AD8CB] [6C151044]

Frequency



[galltoto.com]_t_5664135.torrent
Торрент: Зарегистрирован ·  [ 2019-01-06 19:01 ] ·  c552789469e0d3e769f24173516fa8079fbbacf0

19 KB

Статус: проверено
Скачан: 0 раз
Размер: 452 MB
Оценка: 
(Голосов: 0)
Сказали спасибо: 0  Спасибо
Похожие темы
[Профиль]    [ЛС]
Показать сообщения:    
Ответить на тему

Текущее время: Сегодня 19:48

Часовой пояс: GMT + 7



Вы не можете начинать темы
Вы не можете отвечать на сообщения
Вы не можете редактировать свои сообщения
Вы не можете удалять свои сообщения
Вы не можете голосовать в опросах
Вы не можете прикреплять файлы к сообщениям
Вы можете скачивать файлы


Complications | Die Mädchen aus dem Weltraum | IMDb: 8.1 64 HD Betty White: First Lady of Television