(Eclectic Prog) [WEB] Værket (Vaerket) - Дискография (2 альбома) - 2016-2018, FLAC (tracks), lossless

Ответить на тему
Статистика раздачи [Обновить пиров]
Размер:  520 MB   |    Зарегистрирован:  12 дней   |    Скачан:  0 раз

Полного источника не было: Никогда

 
   
 
 
 
Автор Сообщение

galltoto.com

Создавать темы 06-Янв-2019 19:41

[Цитировать]

-Værket / Дискография- -
Жанр: Eclectic Prog
Носитель: WEB
Год издания: 2016-2018
Страна исполнителя (группы): Denmark
Аудиокодек: FLAC (*.flac)
Тип рипа: tracks
Битрейт аудио: lossless
Продолжительность: 37:08 + 37:55
Источник (релизер): qobuz
Наличие сканов в содержимом раздачи: нет

2016 - Jealousy Hits [37:08]

Tracklist:
01. Overture (10:04)
02. Jealousy Hits (11:21)
03. Last Confession (10:35)
04. Epilogue (5:08)
Line-up / Musicians:
- Jakob Emil Lamdahl Pedersen / vocals, trumpet
- Anders M. Jørgensen / guitar, alto saxophone
- Peter Linnemann Tange / organ, synthesizer
- Adreas Bunin Trap-Jensen / flute
- Michael Thode Schultz / bass
- Adam Kjær Nielsen / drums, percussion

Лог проверки качества

-----------------------
DON'T MODIFY THIS FILE
-----------------------
PERFORMER: auCDtect Task Manager, ver. 1.6.0 RC1 build 1.6.0.1Copyright (c) 2008-2010 y-soft. All rights reservedhttp://y-soft.org
ANALYZER: auCDtect: CD records authenticity detector, version 0.8.2Copyright (c) 2004 Oleg Berngardt. All rights reserved.Copyright (c) 2004 Alexander Djourik. All rights reserved.
FILE: 04. Epilogue.flac Size: 37994497 Hash: A3AC11A8B1A62DA663A56E18453D72A3 Accuracy: -m0 Conclusion: CDDA 100% Signature: 7A71420AC5FE8AD7EAE2EA192D12B9BB1AAA1907FILE: 03. Last Confession.flac Size: 80029696 Hash: 3D11D567D22EF8245E2467D47961EC4D Accuracy: -m0 Conclusion: CDDA 100% Signature: 1DA0A9A92C884151E5B1D267A066CBA4B40EF347FILE: 02. Jealousy Hits.flac Size: 85266511 Hash: 5E5A98A3B1545DC28C17C3021819DC9D Accuracy: -m0 Conclusion: CDDA 100% Signature: 0C82AADEB57EB70E6C9EE5B9EA8646A14FC8AA6DFILE: 01. Overture.flac Size: 72193607 Hash: 45CD8CCB8786B266D27F1136C2080DD6 Accuracy: -m0 Conclusion: CDDA 100% Signature: D06CC87AC29712AACE8DA4782A503729295ABB51

Лог DRM

foobar2000 1.3.9 / Dynamic Range Meter 1.1.1log date: 2018-12-27 21:34:45
--------------------------------------------------------------------------------Analyzed: Værket / Jealousy Hits--------------------------------------------------------------------------------
DR Peak RMS Duration Track--------------------------------------------------------------------------------DR9 0.00 dB -10.08 dB 10:04 01-OvertureDR8 0.00 dB -8.88 dB 11:21 02-Jealousy HitsDR8 0.00 dB -9.05 dB 10:35 03-Last ConfessionDR6 0.00 dB -7.23 dB 5:08 04-Epilogue--------------------------------------------------------------------------------
Number of tracks: 4Official DR value: DR7
Samplerate: 44100 HzChannels: 2Bits per sample: 16Bitrate: 964 kbpsCodec: FLAC================================================================================

2018 - Young Again [37:55]

Tracklist:
01. Young Again (10:38)
02. CCTV of a Boy (6:35)
03. Green Knight (20:42)
Line-up / Musicians:
- Mikkel Thode Schultz / Bass Guitar, Backing Vocals
- Adam Ccsquele Nielsen / Drums, Backing & Lead Vocals
- Andreas Bunin Trap-Jensen / Flute, Backing Vocals
- Anders M. Jørgensen / Guitars, Backing Vocals
- Peter Linnemann Tange / Keys, Backing Vocals
- Jakob Emil Lamdahl Pedersen / Lead Vocals, Trumpet

Лог проверки качества

-----------------------
DON'T MODIFY THIS FILE
-----------------------
PERFORMER: auCDtect Task Manager, ver. 1.6.0 RC1 build 1.6.0.1Copyright (c) 2008-2010 y-soft. All rights reservedhttp://y-soft.org
ANALYZER: auCDtect: CD records authenticity detector, version 0.8.2Copyright (c) 2004 Oleg Berngardt. All rights reserved.Copyright (c) 2004 Alexander Djourik. All rights reserved.
FILE: 03. Green Knight.flac Size: 146160084 Hash: 1C41165AFD4F4B15B8EB474486DB5FF5 Accuracy: -m0 Conclusion: CDDA 99% Signature: 1E07DDD1570CC187AE50B0528BAACC2A17436CE7FILE: 02. CCTV of a Boy.flac Size: 47606231 Hash: 92EA92EE942A76A9D63C169C038CB4A3 Accuracy: -m0 Conclusion: CDDA 100% Signature: 9DD5787BAF20A15D6840AD4565BABD92782A8BC6FILE: 01. Young Again.flac Size: 75068286 Hash: C8E2179AC6FF1D4AA73B9278EA88A328 Accuracy: -m0 Conclusion: CDDA 100% Signature: 7D509E101D869FE9B4BF9B787963F0C2261ABAB3

Лог DRM

foobar2000 1.3.9 / Dynamic Range Meter 1.1.1log date: 2018-12-27 21:35:10
--------------------------------------------------------------------------------Analyzed: Værket / Young Again--------------------------------------------------------------------------------
DR Peak RMS Duration Track--------------------------------------------------------------------------------DR7 0.00 dB -8.93 dB 10:38 01-Young AgainDR8 -0.39 dB -9.76 dB 6:35 02-CCTV of a BoyDR7 0.00 dB -8.94 dB 20:42 03-Green Knight--------------------------------------------------------------------------------
Number of tracks: 3Official DR value: DR7
Samplerate: 44100 HzChannels: 2Bits per sample: 16Bitrate: 938 kbpsCodec: FLAC================================================================================
- группы:


[galltoto.com]_t_5665848.torrent
Торрент: Зарегистрирован ·  [ 2019-01-06 19:01 ] ·  3e2693fcb01cea702854c07e9afc34f8c8c943d2

11 KB

Статус: проверено
Скачан: 0 раз
Размер: 520 MB
Оценка: 
(Голосов: 0)
Сказали спасибо: 0  Спасибо
Похожие темы
[Профиль]    [ЛС]
Показать сообщения:    
Ответить на тему

Текущее время: Сегодня 21:27

Часовой пояс: GMT + 7



Вы не можете начинать темы
Вы не можете отвечать на сообщения
Вы не можете редактировать свои сообщения
Вы не можете удалять свои сообщения
Вы не можете голосовать в опросах
Вы не можете прикреплять файлы к сообщениям
Вы можете скачивать файлы


Baumwollstoff 100% Kinderstoffe Stoff Meterware Baumwolle 50 cm Patchworkstoff | 8-20 mm Plastic Safety Eyes Blue Green Red Brown Amber Amigurumi Toy Teddy Bear | 봉 돌리는 모모