(Crossover Prog) [WEB] Walk the Rail - Embroidery - 2018, FLAC (tracks), lossless

Ответить на тему
Статистика раздачи [Обновить пиров]
Размер:  310 MB   |    Зарегистрирован:  12 дней   |    Скачан:  0 раз

Полного источника не было: Никогда

 
   
 
 
 
Автор Сообщение

galltoto.com

Создавать темы 06-Янв-2019 19:41

[Цитировать]

Walk the Rail / Embroidery
Жанр: Crossover Prog
Носитель: WEB
Год издания: 2018
Страна исполнителя (группы): Chile
Аудиокодек: FLAC (*.flac)
Тип рипа: tracks
Битрейт аудио: lossless
Продолжительность: 47:25
Источник (релизер): Bandcamp
Наличие сканов в содержимом раздачи: нет

01. Embroidery [00:04:33]
02. Breathe Again [00:05:42]
03. Fog of Doubt [00:00:53]
04. Fatum [00:07:57]
05. Alright I [00:08:01]
06. Alright II [00:06:06]
07. Uphill [00:04:35]
08. Pendulum [00:09:33]
Released April 14, 2018

Состав

Ricardo Sande - Guitars and Vocals
Juan Quiroga - Lead Guitar
Eduardo Munizaga - Bass
Diego Quiroga - Drums and Keyboards

Лог проверки качества

-----------------------
DON'T MODIFY THIS FILE
-----------------------
PERFORMER: auCDtect Task Manager, ver. 1.6.0 RC1 build 1.6.0.1Copyright (c) 2008-2010 y-soft. All rights reservedhttp://y-soft.org
ANALYZER: auCDtect: CD records authenticity detector, version 0.8.2Copyright (c) 2004 Oleg Berngardt. All rights reserved.Copyright (c) 2004 Alexander Djourik. All rights reserved.
FILE: Walk the Rail - Embroidery - 08 Pendulum.flac Size: 66854093 Hash: BAAC1CB7BE4E207E52B5EF6AF5D3CDAC Accuracy: -m0 Conclusion: CDDA 100% Signature: EF3338FD41A6D8C36525F5F95DC6FA4641E7BC65FILE: Walk the Rail - Embroidery - 07 Uphill.flac Size: 28598626 Hash: 69EDB52080120FF9460A455D7C77E0B2 Accuracy: -m0 Conclusion: CDDA 99% Signature: C3310EEED9224DF32059A1A644B76B5D74B0409AFILE: Walk the Rail - Embroidery - 06 Alright II.flac Size: 45343277 Hash: 62D9D079E886EBCC1D243FE8C44819D9 Accuracy: -m0 Conclusion: CDDA 100% Signature: 46E51F3AF846DAE71A6513A03FB31CDF4C1BA7A0FILE: Walk the Rail - Embroidery - 05 Alright I.flac Size: 55931859 Hash: EA2F6D09B9BE90B2F03632547F2C1661 Accuracy: -m0 Conclusion: CDDA 100% Signature: 7C81662F544F78E18289126B0C9E8DCFD0095A42FILE: Walk the Rail - Embroidery - 04 Fatum.flac Size: 56263120 Hash: 6D197675FF4FB50313D126BCF5EE20BE Accuracy: -m0 Conclusion: CDDA 100% Signature: 8DA89F1BBBB81614F226B716F38087E6B3F2B0E5FILE: Walk the Rail - Embroidery - 03 Fog of Doubt.flac Size: 4028484 Hash: 4546E85434A7AA6623F857F682024B62 Accuracy: -m0 Conclusion: CDDA 100% Signature: DDF3E7F45F56E5976801B4EC37EF0F611538C1ACFILE: Walk the Rail - Embroidery - 02 Breathe Again.flac Size: 41259217 Hash: A0EE36ED1410E1B0C3FBFB9DEA1D8695 Accuracy: -m0 Conclusion: CDDA 100% Signature: A7D467DF3B35FDE3D7E6DF5323D3454BAFD4C60AFILE: Walk the Rail - Embroidery - 01 Embroidery.flac Size: 25678404 Hash: 4AC087652E2E5266DB157FFAED1C42B1 Accuracy: -m0 Conclusion: CDDA 100% Signature: 2AA577F0F329AC2D247BCA678ADB6EEF542E354A

DRM log

foobar2000 1.3.12 / Dynamic Range Meter 1.1.1log date: 2018-12-28 07:20:04
--------------------------------------------------------------------------------Analyzed: Walk the Rail / Embroidery--------------------------------------------------------------------------------
DR Peak RMS Duration Track--------------------------------------------------------------------------------DR7 0.00 dB -9.66 dB 4:33 01-EmbroideryDR7 0.00 dB -8.87 dB 5:43 02-Breathe AgainDR10 -4.08 dB -19.37 dB 0:54 03-Fog of DoubtDR6 0.00 dB -8.54 dB 7:58 04-FatumDR6 0.00 dB -8.59 dB 8:02 05-Alright IDR6 0.00 dB -8.24 dB 6:07 06-Alright IIDR8 0.00 dB -11.63 dB 4:35 07-UphillDR7 0.00 dB -8.89 dB 9:34 08-Pendulum--------------------------------------------------------------------------------
Number of tracks: 8Official DR value: DR7
Samplerate: 44100 HzChannels: 2Bits per sample: 16Bitrate: 930 kbpsCodec: FLAC================================================================================


[galltoto.com]_t_5666010.torrent
Торрент: Зарегистрирован ·  [ 2019-01-06 19:01 ] ·  4cbdf9d7e6a418abda2776ec01ac6c230ea06217

13 KB

Статус: проверено
Скачан: 0 раз
Размер: 310 MB
Оценка: 
(Голосов: 0)
Сказали спасибо: 0  Спасибо
Похожие темы
[Профиль]    [ЛС]
Показать сообщения:    
Ответить на тему

Текущее время: Сегодня 21:24

Часовой пояс: GMT + 7



Вы не можете начинать темы
Вы не можете отвечать на сообщения
Вы не можете редактировать свои сообщения
Вы не можете удалять свои сообщения
Вы не можете голосовать в опросах
Вы не можете прикреплять файлы к сообщениям
Вы можете скачивать файлы


Bürostuhl GAMING Chefsessel Schreibtischstuhl Drehstuhl Race Chair Sportsitz | Best Match | Autostoeltjes