(Progressive Rock) [WEB] Juan X Kings - Dancing in Freefall - 2018, FLAC (tracks), lossless

Ответить на тему
Статистика раздачи [Обновить пиров]
Размер:  293 MB   |    Зарегистрирован:  1 месяц 15 дней   |    Скачан:  0 раз

Полного источника не было: Никогда

 
   
 
 
 
Автор Сообщение

galltoto.com

Создавать темы 06-Янв-2019 19:41

[Цитировать]

Juan X Kings / Dancing in Freefall
Жанр: Progressive Rock
Носитель: WEB
Год издания: 2018
Издатель (лейбл): Web Release
Страна исполнителя (группы): Spain
Аудиокодек: FLAC (*.flac)
Тип рипа: tracks
Битрейт аудио: lossless
Продолжительность: 52:11 min
Источник (релизер): bandcamp.com
Наличие сканов в содержимом раздачи:
Треклист:
1. Penumbra. 3:38
2. Dying Sister. 7:20
3. Treasure. 5:14
4. Crimson Fields. 4:11
5. Halls Of Giants. 10:22
6. Dancer Of Time. 7:46
7. Ninety Seven Degrees. 4:22
8. Farewell To Light. 6:55
9. Leaving Home. 2:03

DRM.log

foobar2000 1.3.8 / Dynamic Range Meter 1.1.1log date: 2018-12-28 11:27:39
--------------------------------------------------------------------------------Analyzed: Juan X Kings / Dancing in Freefall--------------------------------------------------------------------------------
DR Peak RMS Duration Track--------------------------------------------------------------------------------DR11 -7.62 dB -22.75 dB 3:41 01-PenumbraDR13 -0.25 dB -15.42 dB 7:22 02-Dying SisterDR11 -0.19 dB -12.38 dB 5:17 03-TreasureDR10 -0.16 dB -12.66 dB 4:14 04-Crimson FieldsDR11 -0.02 dB -13.08 dB 10:25 05-Halls Of GiantsDR12 -0.16 dB -15.66 dB 7:48 06-Dancer Of TimeDR12 -0.25 dB -14.78 dB 4:24 07-Ninety Seven DegreesDR14 -0.25 dB -17.00 dB 6:57 08-Farewell To LightDR12 -4.69 dB -21.07 dB 2:03 09-Leaving Home--------------------------------------------------------------------------------
Number of tracks: 9Official DR value: DR12
Samplerate: 44100 HzChannels: 2Bits per sample: 16Bitrate: 417 kbpsCodec: FLAC================================================================================

Лог проверки качества

-----------------------
DON'T MODIFY THIS FILE
-----------------------
PERFORMER: auCDtect Task Manager, ver. 1.6.0 RC1 build 1.6.0.1Copyright (c) 2008-2010 y-soft. All rights reservedhttp://y-soft.org
ANALYZER: auCDtect: CD records authenticity detector, version 0.8.2Copyright (c) 2004 Oleg Berngardt. All rights reserved.Copyright (c) 2004 Alexander Djourik. All rights reserved.
FILE: 01. Penumbra.flac Size: 18249897 Hash: 7C8D1A6600D7835171CB3DA574C27029 Accuracy: -m0 Conclusion: CDDA 99% Signature: E12105ABCCE73972D3923D5DBA792754E223C74CFILE: 02. Dying Sister.flac Size: 44339488 Hash: C2EC94288C7F11F7C054398C5083053E Accuracy: -m0 Conclusion: CDDA 100% Signature: C610CF810CC72A3CA8561A01A32079452DE4276BFILE: 03. Treasure.flac Size: 35525633 Hash: 22AC2E373A8999E2FAA02394A106AD5B Accuracy: -m0 Conclusion: CDDA 100% Signature: DBA1E7FE9FFFE3C959EB6CB2B300B6B59EB07E96FILE: 04. Crimson Fields.flac Size: 29191694 Hash: F22FA66161972697A7076139719D3481 Accuracy: -m0 Conclusion: CDDA 100% Signature: C554CFA54F9767AFD00865E0ECB7B67CA4C7FA20FILE: 05. Halls Of Giants.flac Size: 65027886 Hash: 958B394F90E804914D68C2097285FBAA Accuracy: -m0 Conclusion: CDDA 100% Signature: 42F7C07A5E08AE30B27357FCAA096637DEAEE26EFILE: 06. Dancer Of Time.flac Size: 44002894 Hash: B34561049CB22527FB90C65492F16F4E Accuracy: -m0 Conclusion: CDDA 100% Signature: F6E7A8ED879ADD88679E7CA9412E045613BF7EBFFILE: 07. Ninety Seven Degrees.flac Size: 26010197 Hash: 5B19AD0818081C09FC0276B0F19D840A Accuracy: -m0 Conclusion: CDDA 100% Signature: 2D2FF459D137D83774DB6FF07172E26248E445A2FILE: 08. Farewell To Light.flac Size: 37075336 Hash: 296C939DC10CC52917733883DD0F16E4 Accuracy: -m0 Conclusion: CDDA 99% Signature: 88CC16C8437DAD2C2DE59C6CA389DA67A03132C5FILE: 09. Leaving Home.flac Size: 6544849 Hash: F42C252AF262D5E10BCED7B0F7870AD5 Accuracy: -m0 Conclusion: CDDA 42% Signature: 3C9B921D42665CE0C84213E03A332F5AD229E662

Об альбоме (сборнике)

released December 14, 2018


[galltoto.com]_t_5665898.torrent
Торрент: Зарегистрирован ·  [ 2019-01-06 19:01 ] ·  c7319082df05d373d91c42f8b6662b60d22db292

13 KB

Статус: проверено
Скачан: 0 раз
Размер: 293 MB
Оценка: 
(Голосов: 0)
Сказали спасибо: 0  Спасибо
Похожие темы
[Профиль]    [ЛС]
Показать сообщения:    
Ответить на тему

Текущее время: Сегодня 19:38

Часовой пояс: GMT + 7



Вы не можете начинать темы
Вы не можете отвечать на сообщения
Вы не можете редактировать свои сообщения
Вы не можете удалять свои сообщения
Вы не можете голосовать в опросах
Вы не можете прикреплять файлы к сообщениям
Вы можете скачивать файлы


Oblivion 2013 2160p x265 10bit-Joy | Matt Houston | Hari Won, Ngô Kiến Huy Và Những Ngôi Sao Đến Từ Hành Tinh Xa Xôi | Gia Đình Việt