(Eclectig Prog, Fusion) [CD] Zapotec - Not Of Sound Mind - 1995, FLAC (tracks+.cue), lossless

Ответить на тему
Статистика раздачи [Обновить пиров]
Размер:  325 MB   |    Зарегистрирован:  12 дней   |    Скачан:  0 раз

Полного источника не было: Никогда

 
   
 
 
 
Автор Сообщение

galltoto.com

Создавать темы 06-Янв-2019 19:41

[Цитировать]

Zapotec / Not Of Sound Mind
Жанр: Eclectig Prog, Fusion
Носитель: CD
Год издания: 1995
Страна исполнителя (группы): USA
Аудиокодек: FLAC (*.flac)
Тип рипа: tracks+.cue
Битрейт аудио: lossless
Продолжительность: 00:54:15
Источник (релизер): ?
Наличие сканов в содержимом раздачи: да
Треклист:
1. Little Kirel (8:56)
2. Purgatory (2:24)
3. Out Of The Mist (4:43)
4. Battaire (2:13)
5. American In Japan (7:09)
6. Red Tide (9:45)
7. Forgiveness (2:17)
8. Zero Point (6:41)
9. Kobe 1995 (10:01)

Лог создания рипа

Exact Audio Copy V1.0 beta 1 from 15. November 2010
EAC extraction logfile from 15. October 2011, 12:03
Zapotec / Not of Sound Mind
Used drive : TSSTcorpCDDVDW SH-S223B Adapter: 2 ID: 1
Read mode : SecureUtilize accurate stream : YesDefeat audio cache : YesMake use of C2 pointers : No
Read offset correction : 6Overread into Lead-In and Lead-Out : NoFill up missing offset samples with silence : YesDelete leading and trailing silent blocks : NoNull samples used in CRC calculations : YesUsed interface : Native Win32 interface for Win NT & 2000Gap handling : Appended to previous track
Used output format : User Defined EncoderSelected bitrate : 768 kBit/sQuality : HighAdd ID3 tag : NoCommand line compressor : C:\Program Files\Exact Audio Copy\FLAC\FLAC.EXEAdditional command line options : -V -8 -T "artist=%a" -T "title=%t" -T "album=%g" -T "date=%y" -T "tracknumber=%n" -T "genre=%m" %s
TOC of the extracted CD
Track | Start | Length | Start sector | End sector --------------------------------------------------------- 1 | 0:00.00 | 8:56.59 | 0 | 40258 2 | 8:56.59 | 2:24.71 | 40259 | 51129 3 | 11:21.55 | 4:43.12 | 51130 | 72366 4 | 16:04.67 | 2:13.63 | 72367 | 82404 5 | 18:18.55 | 7:09.72 | 82405 | 114651 6 | 25:28.52 | 9:45.25 | 114652 | 158551 7 | 35:14.02 | 2:17.55 | 158552 | 168881 8 | 37:31.57 | 6:41.70 | 168882 | 199026 9 | 44:13.52 | 10:01.72 | 199027 | 244173
Track 1
Filename d:\Geripte cds\01. Little Kirel.wav
Pre-gap length 0:00:02.00
Peak level 100.0 % Extraction speed 5.1 X Track quality 100.0 % Copy CRC F1286FA9 Accurately ripped (confidence 1) [EB242EF8] Copy OK
Track 2
Filename d:\Geripte cds\02. Puragtory.wav
Peak level 100.0 % Extraction speed 4.6 X Track quality 100.0 % Copy CRC 310556EF Accurately ripped (confidence 1) [F85C3BE8] Copy OK
Track 3
Filename d:\Geripte cds\03. Out of the Mist.wav
Peak level 100.0 % Extraction speed 5.7 X Track quality 100.0 % Copy CRC 316FC00F Accurately ripped (confidence 1) [A1CBA01E] Copy OK
Track 4
Filename d:\Geripte cds\04. Battarie.wav
Peak level 100.0 % Extraction speed 5.0 X Track quality 100.0 % Copy CRC 4D3D96BD Accurately ripped (confidence 1) [B6984F36] Copy OK
Track 5
Filename d:\Geripte cds\05. American in Japan.wav
Peak level 100.0 % Extraction speed 6.8 X Track quality 100.0 % Copy CRC 5D56CCB0 Accurately ripped (confidence 1) [44C68C5A] Copy OK
Track 6
Filename d:\Geripte cds\06. Red Tide.wav
Peak level 100.0 % Extraction speed 7.5 X Track quality 100.0 % Copy CRC 3D39240D Accurately ripped (confidence 1) [C055D599] Copy OK
Track 7
Filename d:\Geripte cds\07. Forgiveness.wav
Peak level 100.0 % Extraction speed 6.6 X Track quality 100.0 % Copy CRC 98CEF8E7 Accurately ripped (confidence 1) [384D4ED2] Copy OK
Track 8
Filename d:\Geripte cds\08. Zero Point.wav
Peak level 100.0 % Extraction speed 8.1 X Track quality 100.0 % Copy CRC 9C085520 Accurately ripped (confidence 1) [6F26489F] Copy OK
Track 9
Filename d:\Geripte cds\09. Kobe 1995.wav
Peak level 100.0 % Extraction speed 8.9 X Track quality 100.0 % Copy CRC C0D488C8 Accurately ripped (confidence 1) [E6BB7491] Copy OK
All tracks accurately ripped
No errors occurred
End of status report

Содержание индексной карты (.CUE)

REM GENRE FusionREM DATE 1995REM DISCID 6B0CB709REM COMMENT "ExactAudioCopy v1.0b1"FILE "01. Little Kirel.wav" WAVE TRACK 01 AUDIO INDEX 01 00:00:00FILE "02. Puragtory.wav" WAVE TRACK 02 AUDIO FLAGS DCP INDEX 01 00:00:00FILE "03. Out of the Mist.wav" WAVE TRACK 03 AUDIO FLAGS DCP INDEX 01 00:00:00FILE "04. Battarie.wav" WAVE TRACK 04 AUDIO FLAGS DCP INDEX 01 00:00:00FILE "05. American in Japan.wav" WAVE TRACK 05 AUDIO FLAGS DCP INDEX 01 00:00:00FILE "06. Red Tide.wav" WAVE TRACK 06 AUDIO FLAGS DCP INDEX 01 00:00:00FILE "07. Forgiveness.wav" WAVE TRACK 07 AUDIO FLAGS DCP INDEX 01 00:00:00FILE "08. Zero Point.wav" WAVE TRACK 08 AUDIO FLAGS DCP INDEX 01 00:00:00FILE "09. Kobe 1995.wav" WAVE TRACK 09 AUDIO FLAGS DCP INDEX 01 00:00:00

Об исполнителе (группе)

http://www.progarchives.com/artist.asp?id=3564

Состав

Bill Curtis/guitarist
Anna Hubbell/violinist
Mike Galway/bassist
Jim Sullivan/drummer


[galltoto.com]_t_5666020.torrent
Торрент: Зарегистрирован ·  [ 2019-01-06 19:01 ] ·  4e0605dfe3a86453f9e313361ad47a2a90fd078d

27 KB

Статус: проверено
Скачан: 0 раз
Размер: 325 MB
Оценка: 
(Голосов: 0)
Сказали спасибо: 0  Спасибо
Похожие темы
[Профиль]    [ЛС]
Показать сообщения:    
Ответить на тему

Текущее время: Сегодня 21:18

Часовой пояс: GMT + 7



Вы не можете начинать темы
Вы не можете отвечать на сообщения
Вы не можете редактировать свои сообщения
Вы не можете удалять свои сообщения
Вы не можете голосовать в опросах
Вы не можете прикреплять файлы к сообщениям
Вы можете скачивать файлы


Chantal Lauby | Copyright | Baby Doll Clothes Suit Zapf Doll Jumpsuit Suit Doll Nightdress Sleeping Clothes