(Crossover Prog) [CD] Pymlico - Nightscape - 2018, FLAC (tracks+.cue), lossless

Ответить на тему
Статистика раздачи [Обновить пиров]
Размер:  266 MB   |    Зарегистрирован:  12 дней   |    Скачан:  0 раз

Полного источника не было: Никогда

 
   
 
 
 
Автор Сообщение

galltoto.com

Создавать темы 06-Янв-2019 19:41

[Цитировать]

Pymlico - Nightscape
Жанр: Crossover Prog
Носитель: CD
Год выхода диска: 2018
Страна: Norway
Производитель диска: Apollon Records / ARP015CD
Аудио кодек: FLAC
Тип рипа: tracks+.cue
Битрейт аудио: lossless
Продолжительность: 40:53
Наличие сканов в содержимом раздачи:
Трэклист:
01. Wide Awake (5:16)
02. Gabagool (5:17)
03. Tofana 10Am (4:47)
04. Room With A View (4:58)
05. Ghost Notes (8:15)
06. Road Movie (4:50)
07. Silver Arrow (7:30)
Состав:
- Stephan Hvinden / guitars
- Andreas Sjo Engen / guitars
- Øyvind Brøter / keyboards, arrangements & co-producer
- Marie Færevaag / saxophones, keyboards, vocals
- Axel Toreg Reite / bass guitar, synth bass
- Arild Brøter / drums, keyboards, guitars, arrangements & co-producer
- Oda Rydning / percussion
With:
- Mattias Krohn Nielsen / acoustic (1-4) & electric (3) guitars
- Ketil Vestrum Einarsen / flute (1,2)
- Didrik Føyn Føyen / trombone (2)
- Andreas Fossum / trumpet (2)
Доп. информация: http://www.progarchives.com/artist.asp?id=6493

Отчёт XLD

X Lossless Decoder version 20160920 (149.2)
XLD extraction logfile from 2018-12-28 18:12:54 +0100
Pymlico / Nightscape
Used drive : HL-DT-ST DVDRW GX40N (revision RQ00)Media type : Pressed CD
Ripper mode : XLD Secure RipperDisable audio cache : OK for the drive with a cache less than 1375KiBMake use of C2 pointers : NORead offset correction : 6Max retry count : 20Gap status : Analyzed, Appended (except HTOA)
TOC of the extracted CD Track | Start | Length | Start sector | End sector --------------------------------------------------------- 1 | 00:00:00 | 05:16:67 | 0 | 23766 2 | 05:16:67 | 05:17:07 | 23767 | 47548 3 | 10:33:74 | 04:47:34 | 47549 | 69107 4 | 15:21:33 | 04:58:51 | 69108 | 91508 5 | 20:20:09 | 08:15:03 | 91509 | 128636 6 | 28:35:12 | 04:50:06 | 128637 | 150392 7 | 33:25:18 | 07:30:42 | 150393 | 184184
AccurateRip Summary Disc not found in AccurateRip DB.
All Tracks Album gain : -6.30 dB Peak : 0.894043 Statistics Read error : 0 Jitter error (maybe fixed) : 0 Retry sector count : 0 Damaged sector count : 0
Track 01 Filename : /rips/Pymlico - Nightscape (2018) [FLAC]/01 Wide Awake.flac Pre-gap length : 00:02:00
Track gain : -7.05 dB Peak : 0.892242 CRC32 hash (test run) : 1484CC7F CRC32 hash : 1484CC7F CRC32 hash (skip zero) : BE819EB4 AccurateRip v1 signature : 72A86CB2 AccurateRip v2 signature : 27520ED0 ->Track not present in AccurateRip database. Statistics Read error : 0 Jitter error (maybe fixed) : 0 Retry sector count : 0 Damaged sector count : 0
Track 02 Filename : /rips/Pymlico - Nightscape (2018) [FLAC]/02 Gabagool.flac
Track gain : -5.42 dB Peak : 0.892151 CRC32 hash (test run) : 857AF458 CRC32 hash : 857AF458 CRC32 hash (skip zero) : B1C93A83 AccurateRip v1 signature : DD7999BF AccurateRip v2 signature : A88B9759 ->Track not present in AccurateRip database. Statistics Read error : 0 Jitter error (maybe fixed) : 0 Retry sector count : 0 Damaged sector count : 0
Track 03 Filename : /rips/Pymlico - Nightscape (2018) [FLAC]/03 Tofana 10 AM.flac
Track gain : -6.28 dB Peak : 0.892181 CRC32 hash (test run) : 2213EE9A CRC32 hash : 2213EE9A CRC32 hash (skip zero) : 8CBA829A AccurateRip v1 signature : AEC35CFE AccurateRip v2 signature : 31F9CBF3 ->Track not present in AccurateRip database. Statistics Read error : 0 Jitter error (maybe fixed) : 0 Retry sector count : 0 Damaged sector count : 0
Track 04 Filename : /rips/Pymlico - Nightscape (2018) [FLAC]/04 Room With A View.flac Pre-gap length : 00:01:43
Track gain : -4.47 dB Peak : 0.892059 CRC32 hash (test run) : 622F25D7 CRC32 hash : 622F25D7 CRC32 hash (skip zero) : 5121D93F AccurateRip v1 signature : 90B085FD AccurateRip v2 signature : 94DB7552 ->Track not present in AccurateRip database. Statistics Read error : 0 Jitter error (maybe fixed) : 0 Retry sector count : 0 Damaged sector count : 0
Track 05 Filename : /rips/Pymlico - Nightscape (2018) [FLAC]/05 Ghost Notes.flac
Track gain : -6.51 dB Peak : 0.892181 CRC32 hash (test run) : 8D842AEB CRC32 hash : 8D842AEB CRC32 hash (skip zero) : 0C0CAA81 AccurateRip v1 signature : 231D130A AccurateRip v2 signature : 973464EB ->Track not present in AccurateRip database. Statistics Read error : 0 Jitter error (maybe fixed) : 0 Retry sector count : 0 Damaged sector count : 0
Track 06 Filename : /rips/Pymlico - Nightscape (2018) [FLAC]/06 Road Movie.flac
Track gain : -6.71 dB Peak : 0.892151 CRC32 hash (test run) : 43820DD6 CRC32 hash : 43820DD6 CRC32 hash (skip zero) : CF39205F AccurateRip v1 signature : 21B6C4DD AccurateRip v2 signature : D0D58A0E ->Track not present in AccurateRip database. Statistics Read error : 0 Jitter error (maybe fixed) : 0 Retry sector count : 0 Damaged sector count : 0
Track 07 Filename : /rips/Pymlico - Nightscape (2018) [FLAC]/07 Silver Arrow.flac
Track gain : -5.69 dB Peak : 0.894043 CRC32 hash (test run) : BD69D82D CRC32 hash : BD69D82D CRC32 hash (skip zero) : C8BF22EE AccurateRip v1 signature : C6A8F22A AccurateRip v2 signature : E10F10D4 ->Track not present in AccurateRip database. Statistics Read error : 0 Jitter error (maybe fixed) : 0 Retry sector count : 0 Damaged sector count : 0
No errors occurred
End of status report
-----BEGIN XLD SIGNATURE-----Lbf0MLuaykEGVOJcqGvDV1c0dJbX49TLPubujijvL68bifojhHYmLhgbg2j.i4T2BplxkmOjm4TmpvYKp_R_tP2_Xr0YOk7_KC4k3yW-----END XLD SIGNATURE-----

.cue

TITLE "Nightscape"PERFORMER "Pymlico"REM GENRE "Progressive Rock"REM DATE "2018"REM DISCID 4A099707REM REPLAYGAIN_ALBUM_GAIN -6.30 dBREM REPLAYGAIN_ALBUM_PEAK 0.894043FILE "01 Wide Awake.flac" WAVE TRACK 01 AUDIO TITLE "Wide Awake" PERFORMER "Pymlico" ISRC NOL861829010 REM REPLAYGAIN_TRACK_GAIN -7.05 dB REM REPLAYGAIN_TRACK_PEAK 0.892242 INDEX 01 00:00:00FILE "02 Gabagool.flac" WAVE TRACK 02 AUDIO TITLE "Gabagool" PERFORMER "Pymlico" ISRC NOL861829020 REM REPLAYGAIN_TRACK_GAIN -5.42 dB REM REPLAYGAIN_TRACK_PEAK 0.892151 INDEX 01 00:00:00FILE "03 Tofana 10 AM.flac" WAVE TRACK 03 AUDIO TITLE "Tofana 10 AM" PERFORMER "Pymlico" ISRC NOL861829030 REM REPLAYGAIN_TRACK_GAIN -6.28 dB REM REPLAYGAIN_TRACK_PEAK 0.892181 INDEX 01 00:00:00 TRACK 04 AUDIO TITLE "Room With A View" PERFORMER "Pymlico" ISRC NOL861829040 REM REPLAYGAIN_TRACK_GAIN -4.47 dB REM REPLAYGAIN_TRACK_PEAK 0.892059 INDEX 00 04:45:66FILE "04 Room With A View.flac" WAVE INDEX 01 00:00:00FILE "05 Ghost Notes.flac" WAVE TRACK 05 AUDIO TITLE "Ghost Notes" PERFORMER "Pymlico" ISRC NOL861829050 REM REPLAYGAIN_TRACK_GAIN -6.51 dB REM REPLAYGAIN_TRACK_PEAK 0.892181 INDEX 01 00:00:00FILE "06 Road Movie.flac" WAVE TRACK 06 AUDIO TITLE "Road Movie" PERFORMER "Pymlico" ISRC NOL861829060 REM REPLAYGAIN_TRACK_GAIN -6.71 dB REM REPLAYGAIN_TRACK_PEAK 0.892151 INDEX 01 00:00:00FILE "07 Silver Arrow.flac" WAVE TRACK 07 AUDIO TITLE "Silver Arrow" PERFORMER "Pymlico" ISRC NOL861829070 REM REPLAYGAIN_TRACK_GAIN -5.69 dB REM REPLAYGAIN_TRACK_PEAK 0.894043 INDEX 01 00:00:00

CueTools

[CUETools log; Date: 2018.12.28. 22:43:20; Version: 2.1.6][CTDB TOCID: om_TweIaKHdypLuNqDNY8hP8DwI-] found.Track | CTDB Status 1 | (1/1) Accurately ripped 2 | (1/1) Accurately ripped 3 | (1/1) Accurately ripped 4 | (1/1) Accurately ripped 5 | (1/1) Accurately ripped 6 | (1/1) Accurately ripped 7 | (1/1) Accurately ripped[AccurateRip ID: 000a9b6c-00406d04-4a099707] disk not present in database.
Track Peak [ CRC32 ] [W/O NULL] -- 89,4 [23A58FF2] [CA0254A2] 01 89,2 [1484CC7F] [BE819EB4] 02 89,2 [857AF458] [B1C93A83] 03 89,2 [2213EE9A] [8CBA829A] 04 89,2 [622F25D7] [5121D93F] 05 89,2 [8D842AEB] [0C0CAA81] 06 89,2 [43820DD6] [CF39205F] 07 89,4 [BD69D82D] [C8BF22EE]
Источник: Torrentc redacted


[galltoto.com]_t_5666393.torrent
Торрент: Зарегистрирован ·  [ 2019-01-06 19:01 ] ·  84a84550e770493c0925a5f2fc840a3c8a057b39

11 KB

Статус: проверено
Скачан: 0 раз
Размер: 266 MB
Оценка: 
(Голосов: 0)
Сказали спасибо: 0  Спасибо
Похожие темы
[Профиль]    [ЛС]
Показать сообщения:    
Ответить на тему

Текущее время: Сегодня 21:13

Часовой пояс: GMT + 7



Вы не можете начинать темы
Вы не можете отвечать на сообщения
Вы не можете редактировать свои сообщения
Вы не можете удалять свои сообщения
Вы не можете голосовать в опросах
Вы не можете прикреплять файлы к сообщениям
Вы можете скачивать файлы


Cura del corpo | Predator BluRayRip AC3 5.1 | Download