(Progressive/Experimental rock) [WEB] Illogicians - Collection (3 Releases) - 2016-2018, FLAC (tracks), lossless

Ответить на тему
Статистика раздачи [Обновить пиров]
Размер:  881 MB   |    Зарегистрирован:  12 дней   |    Скачан:  0 раз

Полного источника не было: Никогда

 
   
 
 
 
Автор Сообщение

galltoto.com

Создавать темы 06-Янв-2019 19:41

[Цитировать]

Illogicians


Collection
Жанр: Progressive/Experimental rock
Носитель: WEB
Год издания: 2016-2018
Страна исполнителя (группы): USA
Аудиокодек: FLAC (*.flac)
Тип рипа: tracks
Битрейт аудио: lossless
Продолжительность: 02:13:36
Источник (релизер): указан поальбомно
Наличие сканов в содержимом раздачи: нет

2016 - Delightfully Absurd [46:41]


01. Consider Compound Eyes [00:01:40]
02. Paradise? [00:04:38]
03. Bill Shat [00:03:31]
04. Undivided Attention [00:03:58]
05. Sphenoid Strut [00:02:56]
06. Muddy River [00:03:50]
07. Human Puke Box [00:02:13]
08. Zorb [00:03:50]
09. Wonderful Chaos [00:03:12]
10. Dervish Union Elect [00:07:17]
11. Slate This Fucker [00:01:46]
12. Drawn to a Flame [00:03:43]
13. Tug Fest [00:01:39]
14. Wringle [00:02:21]
Released December 8, 2016
Bandcamp

Состав

Todd Smith - Guitar, Bass, Keyboards, Harmonica, Vocals
Christopher Stainback - Bass, Lapsteel Guitar, Banjo, Banjo-Uke, Keyboards, Percussion, Vocals
Aaron Cramer - Drums, Guitar, Percussion, Vocals

Лог проверки качества

-----------------------
DON'T MODIFY THIS FILE
-----------------------
PERFORMER: auCDtect Task Manager, ver. 1.6.0 RC1 build 1.6.0.1Copyright (c) 2008-2010 y-soft. All rights reservedhttp://y-soft.org
ANALYZER: auCDtect: CD records authenticity detector, version 0.8.2Copyright (c) 2004 Oleg Berngardt. All rights reserved.Copyright (c) 2004 Alexander Djourik. All rights reserved.
FILE: Illogicians - Delightfully Absurd - 14 Wringle.flac Size: 10186435 Hash: AE84EE56297F8CEFB4B967E74901325F Accuracy: -m0 Conclusion: CDDA 100% Signature: 2B9300CE876E483B23ED735B74196C16090F2928FILE: Illogicians - Delightfully Absurd - 13 Tug Fest.flac Size: 11476873 Hash: 944D585BDCD76977B4BDA81638B52989 Accuracy: -m0 Conclusion: CDDA 100% Signature: D17B729443EE60694053ADF66835306954E38202FILE: Illogicians - Delightfully Absurd - 12 Drawn to a Flame.flac Size: 27325498 Hash: DDC0E449F6ABD82D627CE77E44097739 Accuracy: -m0 Conclusion: CDDA 100% Signature: 8F7798A5D10D6B8A75774B99620FF0BEAB645043FILE: Illogicians - Delightfully Absurd - 11 Slate This Fucker.flac Size: 9510122 Hash: 346C37690013A6CEFE0DB38B36A21151 Accuracy: -m0 Conclusion: CDDA 100% Signature: 6923FEC420E71B38348C1AB488874C60505EECEDFILE: Illogicians - Delightfully Absurd - 10 Dervish Union Elect.flac Size: 50819453 Hash: D5AC274E6687F15825DBCC8F08AEAF59 Accuracy: -m0 Conclusion: CDDA 100% Signature: 1772154A807B3DE0736D2659C5DBD106D401D296FILE: Illogicians - Delightfully Absurd - 09 Wonderful Chaos.flac Size: 20297012 Hash: 87624D710EC9A697BD713C87F0A13D53 Accuracy: -m0 Conclusion: CDDA 99% Signature: A1C2E069A703BD22BA98BA2B22C9392B62FBC22FFILE: Illogicians - Delightfully Absurd - 08 Zorb.flac Size: 29371364 Hash: BC0DA59C56C3993C7592323EDB003B6B Accuracy: -m0 Conclusion: CDDA 100% Signature: FD3C91749F1465E36E315E750B08454705B5D7A5FILE: Illogicians - Delightfully Absurd - 07 Human Puke Box.flac Size: 14843228 Hash: A1945E993C790ECD8AE6D5E34ECE8328 Accuracy: -m0 Conclusion: CDDA 100% Signature: 39D2E0C51583A5ECD1DE3313D681A5E34BF1BEBAFILE: Illogicians - Delightfully Absurd - 06 Muddy River.flac Size: 26910126 Hash: 7C7306EE18338B607CCC4AD2BCA21193 Accuracy: -m0 Conclusion: CDDA 100% Signature: E878C2579FE0729A5BEE01C3A0D13776D8907355FILE: Illogicians - Delightfully Absurd - 05 Sphenoid Strut.flac Size: 21471431 Hash: BAECE8CCBEAF7B1530E71A532AFCEF9E Accuracy: -m0 Conclusion: CDDA 100% Signature: 3DB5951F984FE5EB4146819C925D2924ED4DA7F7FILE: Illogicians - Delightfully Absurd - 04 Undivided Attention.flac Size: 21296071 Hash: 07BBB4FC355F87FC52D2629C85D25AAD Accuracy: -m0 Conclusion: CDDA 100% Signature: B5AD6DD1AD4C14887FF23D8D12CD02DCA1DF1D85FILE: Illogicians - Delightfully Absurd - 03 Bill Shat.flac Size: 24777812 Hash: 68416E021EF87B1E9C2C4F3F8548DF40 Accuracy: -m0 Conclusion: CDDA 100% Signature: 3B8A6813319B654CC7E7C3B85567030D96A0189BFILE: Illogicians - Delightfully Absurd - 02 Paradise-.flac Size: 33172149 Hash: 6649A748485FD8511B1B3AD2503000F1 Accuracy: -m0 Conclusion: CDDA 99% Signature: A6D3DECE5EDFBC900E68602EF9C88D014E1A5A11FILE: Illogicians - Delightfully Absurd - 01 Consider Compound Eyes.flac Size: 9073587 Hash: 24F5F577C51E7D3EC877A7481D10F26D Accuracy: -m0 Conclusion: CDDA 100% Signature: 178AC0E989F93EB9AB70838BC87DB40E238FFDE0

DRM log

foobar2000 1.3.12 / Dynamic Range Meter 1.1.1log date: 2018-12-29 09:25:22
--------------------------------------------------------------------------------Analyzed: Illogicians / Delightfully Absurd--------------------------------------------------------------------------------
DR Peak RMS Duration Track--------------------------------------------------------------------------------DR13 0.00 dB -14.50 dB 1:41 01-Consider Compound EyesDR8 0.00 dB -8.78 dB 4:39 02-Paradise?DR6 0.00 dB -8.11 dB 3:32 03-Bill ShatDR13 -0.24 dB -16.48 dB 3:58 04-Undivided AttentionDR6 0.00 dB -7.88 dB 2:57 05-Sphenoid StrutDR9 0.00 dB -11.11 dB 3:50 06-Muddy RiverDR7 0.00 dB -10.84 dB 2:14 07-Human Puke BoxDR7 0.00 dB -8.12 dB 3:50 08-ZorbDR10 0.00 dB -12.19 dB 3:13 09-Wonderful ChaosDR8 0.00 dB -9.62 dB 7:17 10-Dervish Union ElectDR11 0.00 dB -13.23 dB 1:46 11-Slate This FuckerDR6 0.00 dB -6.89 dB 3:43 12-Drawn to a FlameDR5 0.00 dB -6.02 dB 1:39 13-Tug FestDR9 -0.63 dB -12.15 dB 2:22 14-Wringle--------------------------------------------------------------------------------
Number of tracks: 14Official DR value: DR8
Samplerate: 44100 HzChannels: 2Bits per sample: 16Bitrate: 563 kbpsCodec: FLAC================================================================================

2018 - Illogicians & MARV Live Improvisation July 7th, 2018 [19:37]


01. Illogicians & MARV Live Improvisation [00:19:37]
Recorded live at the Alternative Library in Bellingham, WA on July 7th, 2018.
Released September 23, 2018
Bandcamp

Лог проверки качества

-----------------------
DON'T MODIFY THIS FILE
-----------------------
PERFORMER: auCDtect Task Manager, ver. 1.6.0 RC1 build 1.6.0.1Copyright (c) 2008-2010 y-soft. All rights reservedhttp://y-soft.org
ANALYZER: auCDtect: CD records authenticity detector, version 0.8.2Copyright (c) 2004 Oleg Berngardt. All rights reserved.Copyright (c) 2004 Alexander Djourik. All rights reserved.
FILE: Illogicians - Illogicians & MARV Live Improvisation July 7th, 2018 - 01 Illogicians & MARV Live Improvisation.flac Size: 130766889 Hash: 4824410EDA3A28D5EC4BF7ECFBFA2CA7 Accuracy: -m0 Conclusion: CDDA 100% Signature: E7FE01F033295DD0580CD315D7627AC165CB08DC

DRM log

foobar2000 1.3.12 / Dynamic Range Meter 1.1.1log date: 2018-12-29 09:35:57
--------------------------------------------------------------------------------Statistics for: 01-Illogicians & MARV Live ImprovisationNumber of samples: 51927750Duration: 19:38--------------------------------------------------------------------------------
Left Right
Peak Value: -0.07 dB --- -0.28 dBAvg RMS: -12.30 dB --- -12.92 dBDR channel: 9.99 dB --- 10.27 dB--------------------------------------------------------------------------------
Official DR Value: DR10
Samplerate: 44100 HzChannels: 2Bits per sample: 16Bitrate: 887 kbpsCodec: FLAC================================================================================

2018 - Mark The Time [01:07:18]


01. Purple Dust [00:02:16]
02. Seat's Taken (Can't Sit Here) [00:05:27]
03. Bury Me On Jupiter [00:02:49]
04. Fresh Of Breath Air [00:01:49]
05. Goopy Jowls [00:02:41]
06. Headlines [00:03:57]
07. Shit The Fan [00:04:36]
08. One Further Ode [00:13:13]
09. For Amy [00:03:15]
10. Hold Please [00:02:49]
11. Appendicular Lament [00:02:06]
12. Ill-Timed Chub [00:01:54]
13. Dunston Hasslehoffman Checks In [00:11:58]
14. Syllables [00:01:41]
15. Into The Abyss [00:04:06]
16. I Am Fashion [00:02:32]
Released December 28, 2018
Bandcamp

Состав

Aaron Cramer - Drums, Percussion, Guitars(15), Synths(6)
Christopher Stainback - Bass, Lap Steel, Percussion, Keyboards/Synths, Vocals(1), Banjo(3, 7)
Jordan Watson - Guitars, Vocals, Mandolin(7, 10, 14), Bass(3, 5), Alto Sax(5, 16), Drums(15), Organ(15), Synth(10), Programming(5)
Todd Smith - Guitars, Vocals, Bass (9, 12, 15, 16), Percussion(5), Banjo(5), Piano(8)
Special Quests:
Kyle McAllister - Trumpet(2)
Molly Jones - Tenor Saxophone(2)
Richard Savery - Baritone Saxophone(2)
Sean Meyer - Vocals(6)
Kristina Nielsen - Piano(6)
Elijah Watson - Second Drum Kit(13)

Лог проверки качества

-----------------------
DON'T MODIFY THIS FILE
-----------------------
PERFORMER: auCDtect Task Manager, ver. 1.6.0 RC1 build 1.6.0.1Copyright (c) 2008-2010 y-soft. All rights reservedhttp://y-soft.org
ANALYZER: auCDtect: CD records authenticity detector, version 0.8.2Copyright (c) 2004 Oleg Berngardt. All rights reserved.Copyright (c) 2004 Alexander Djourik. All rights reserved.
FILE: Illogicians - Mark The Time - 16 I Am Fashion.flac Size: 17664696 Hash: 3334D0CAF54F4588C2686B2D7CFF40AB Accuracy: -m0 Conclusion: CDDA 100% Signature: B54194909184999D67ED757B056380594D4FA897FILE: Illogicians - Mark The Time - 15 Into The Abyss.flac Size: 27762614 Hash: 3FE0C571DF9FE79F9345C6EC3AB70EE5 Accuracy: -m0 Conclusion: CDDA 100% Signature: 43F7D824B8D84299CC842EACF71772BFDF92B11CFILE: Illogicians - Mark The Time - 14 Syllables.flac Size: 11415518 Hash: 2A1DDF984C30025A0875E7CBBD7738A6 Accuracy: -m0 Conclusion: CDDA 100% Signature: 8AB8166072E2CBB94CCF89EA238358F66A2A7903FILE: Illogicians - Mark The Time - 13 Dunston Hasslehoffman Checks In.flac Size: 87526071 Hash: FB88595CB26DFDF10135722F98FB1182 Accuracy: -m0 Conclusion: CDDA 100% Signature: 64AF3065BC285C1DAAA856D6F8B38A307FF9F28EFILE: Illogicians - Mark The Time - 12 Ill-Timed Chub.flac Size: 12387908 Hash: 79DFCF96A47931E643D944060B2BA3CE Accuracy: -m0 Conclusion: CDDA 100% Signature: 7A1468C495D88A98541E7253EBF325D7C6F46745FILE: Illogicians - Mark The Time - 11 Appendicular Lament.flac Size: 14233284 Hash: B72CD4561ED84CA871211EAF9E2D99E4 Accuracy: -m0 Conclusion: CDDA 100% Signature: F9C642FE527B6EBD8AE03D9E356AE6688950F869FILE: Illogicians - Mark The Time - 10 Hold Please.flac Size: 19237420 Hash: C6405592E40C9C6604239A02CCD09021 Accuracy: -m0 Conclusion: CDDA 99% Signature: 509C060652209D00CFA79E04E3D93534D64A4F87FILE: Illogicians - Mark The Time - 09 For Amy.flac Size: 20098677 Hash: 6CFE660DC13F0AE61A6517B83F0737FB Accuracy: -m0 Conclusion: CDDA 100% Signature: AA9B5A0E9F34D1E63279AAB8DEDF68E7B8870EE2FILE: Illogicians - Mark The Time - 08 One Further Ode.flac Size: 88873725 Hash: 3F3584C877BD156ED4C7EAA8BB549716 Accuracy: -m0 Conclusion: CDDA 99% Signature: AAABB321A5970A917720F12602CF0B8EEEF81577FILE: Illogicians - Mark The Time - 07 Shit The Fan.flac Size: 30902529 Hash: 43978305EDEDE5326B0877762E30424A Accuracy: -m0 Conclusion: CDDA 100% Signature: 9C8BF0FFF571FE88C114B49027A44DE71A5CA985FILE: Illogicians - Mark The Time - 06 Headlines.flac Size: 27103184 Hash: ACBA767F5C9846C3461DF7C73C960860 Accuracy: -m0 Conclusion: CDDA 99% Signature: 20DD9D3219AD321D91C968F8ECCCD840FE0501B0FILE: Illogicians - Mark The Time - 05 Goopy Jowls.flac Size: 18019477 Hash: 02A7A33AA85412746890894B33E6803A Accuracy: -m0 Conclusion: CDDA 100% Signature: 50C35B2E631C3AD18789EE750A5B293E83B6D217FILE: Illogicians - Mark The Time - 04 Fresh Of Breath Air.flac Size: 14301759 Hash: 4F0E58146C8564203D8745CC3DAFFF93 Accuracy: -m0 Conclusion: CDDA 100% Signature: 1344CEBB1A4FB73F21CCAB7A60F7BC42D7DD1CB8FILE: Illogicians - Mark The Time - 03 Bury Me On Jupiter.flac Size: 18237681 Hash: D705CB9C72C3EE01EFE639061D48E273 Accuracy: -m0 Conclusion: CDDA 100% Signature: B73511F9914B1B1BBD42458F48607E6E5307F2DEFILE: Illogicians - Mark The Time - 02 Seat's Taken (Can't Sit Here).flac Size: 40310704 Hash: 3ECE05E3027A309A05079E0C1D5510A3 Accuracy: -m0 Conclusion: CDDA 100% Signature: 4B897E04321710A20E7CE53C8FBD4247058D6DCDFILE: Illogicians - Mark The Time - 01 Purple Dust.flac Size: 16130437 Hash: 5718B7770E09C2CCA9926CB68496B19C Accuracy: -m0 Conclusion: CDDA 100% Signature: FDF7F4ECF0F1F0B5D71EE7DFCC88F034027DCC1D

DRM log

foobar2000 1.3.12 / Dynamic Range Meter 1.1.1log date: 2018-12-29 09:03:44
--------------------------------------------------------------------------------Analyzed: Illogicians / Mark The Time--------------------------------------------------------------------------------
DR Peak RMS Duration Track--------------------------------------------------------------------------------DR7 -0.11 dB -8.62 dB 2:16 01-Purple DustDR6 0.00 dB -8.05 dB 5:28 02-Seat's Taken (Can't Sit Here)DR7 0.00 dB -8.97 dB 2:49 03-Bury Me On JupiterDR7 0.00 dB -8.22 dB 1:50 04-Fresh Of Breath AirDR7 -0.11 dB -8.50 dB 2:41 05-Goopy JowlsDR6 -0.40 dB -8.19 dB 3:58 06-HeadlinesDR7 -0.80 dB -9.51 dB 4:37 07-Shit The FanDR7 0.00 dB -9.68 dB 13:14 08-One Further OdeDR9 -0.14 dB -11.57 dB 3:16 09-For AmyDR6 -0.13 dB -8.31 dB 2:50 10-Hold PleaseDR8 0.00 dB -9.71 dB 2:07 11-Appendicular LamentDR6 -0.80 dB -8.46 dB 1:55 12-Ill-Timed ChubDR7 0.00 dB -8.70 dB 11:59 13-Dunston Hasslehoffman Checks InDR6 -0.08 dB -7.37 dB 1:41 14-SyllablesDR6 -0.70 dB -8.11 dB 4:07 15-Into The AbyssDR7 0.00 dB -8.35 dB 2:32 16-I Am Fashion--------------------------------------------------------------------------------
Number of tracks: 16Official DR value: DR7
Samplerate: 44100 HzChannels: 2Bits per sample: 16Bitrate: 921 kbpsCodec: FLAC================================================================================


[galltoto.com]_t_5666526.torrent
Торрент: Зарегистрирован ·  [ 2019-01-06 19:01 ] ·  9d9fdb8d3fe0a5bb36065aa5124add3b443e7483

21 KB

Статус: проверено
Скачан: 0 раз
Размер: 881 MB
Оценка: 
(Голосов: 0)
Сказали спасибо: 0  Спасибо
Похожие темы
[Профиль]    [ЛС]
Показать сообщения:    
Ответить на тему

Текущее время: Сегодня 21:10

Часовой пояс: GMT + 7



Вы не можете начинать темы
Вы не можете отвечать на сообщения
Вы не можете редактировать свои сообщения
Вы не можете удалять свои сообщения
Вы не можете голосовать в опросах
Вы не можете прикреплять файлы к сообщениям
Вы можете скачивать файлы


The Mechanic | Parts of the Computer - 619 Words | Warcraft : Le commencement Streaming Ultra-HD Warcraft : Le commencement Streaming Ultra-HD Warcraft : Le commencement Streaming Ultra-HD [2160p] gratuit en illimite - Le pacifique royaume d'Azeroth est au bord de la guerre alors que sa civilisation doit faire face à une redoutable race d’envahisseurs : des guerriers Orcs fuyant leur monde moribond pour en coloniser un autre. Alors qu’un portail s’ouvre pour connecter les deux mondes, ...