(Symphonic Prog) [WEB] Põhja Konn (Pohja Konn) - s/t - 2017, FLAC (tracks), lossless

Ответить на тему
Статистика раздачи [Обновить пиров]
Размер:  371 MB   |    Зарегистрирован:  12 дней   |    Скачан:  0 раз

Полного источника не было: Никогда

 
   
 
 
 
Автор Сообщение

galltoto.com

Создавать темы 06-Янв-2019 19:41

[Цитировать]

Põhja Konn / s/t
Жанр: Symphonic Prog
Носитель: WEB
Год издания: 2017
Страна исполнителя (группы): Estonia
Аудиокодек: FLAC (*.flac)
Тип рипа: tracks
Битрейт аудио: lossless
Продолжительность: 54:14
Источник (релизер): Bandcamp
Наличие сканов в содержимом раздачи: нет

01. Võitlus [00:05:35]
02. Põhja Konn [00:04:06]
03. Tähetund [00:04:02]
04. Ärkamine [00:05:41]
05. Hulkuv laev [00:05:23]
06. Pigilind [00:04:00]
07. Ümarruut [00:06:04]
08. Mängivad pillid, kuu on vees [00:05:57]
09. Selle ilma igav kainus [00:04:25]
10. Ilu [00:05:14]
11. Kas ma Eestit unes nägin? [00:03:41]
Released December 18, 2017

Состав

Valter Soosalu - Vocals, Keyboards
Jürgen Kütner - Guitar
Kristen Kütner - Guitar, Mandolin
Siim Avango - Bass
Ott Adamson - Drums

Лог проверки качества

-----------------------
DON'T MODIFY THIS FILE
-----------------------
PERFORMER: auCDtect Task Manager, ver. 1.6.0 RC1 build 1.6.0.1Copyright (c) 2008-2010 y-soft. All rights reservedhttp://y-soft.org
ANALYZER: auCDtect: CD records authenticity detector, version 0.8.2Copyright (c) 2004 Oleg Berngardt. All rights reserved.Copyright (c) 2004 Alexander Djourik. All rights reserved.
FILE: Põhja Konn - Põhja Konn - 11 Kas ma Eestit unes nägin-.flac Size: 26011537 Hash: 632F58D1005DF69EA3CA9BC763FDFE06 Accuracy: -m0 Conclusion: CDDA 100% Signature: E0C77A304776856D419217A603D1BEB4755AC94EFILE: Põhja Konn - Põhja Konn - 10 Ilu.flac Size: 37456378 Hash: FD2EE48A80FE78E229493063783E5DE2 Accuracy: -m0 Conclusion: CDDA 100% Signature: DA2F293E95341B6503A184430D7B9C28B7A72DFBFILE: Põhja Konn - Põhja Konn - 09 Selle ilma igav kainus.flac Size: 31733984 Hash: 13703213498FB958F83EB34D984440C4 Accuracy: -m0 Conclusion: CDDA 100% Signature: 065C95F4B3043C8C1172440D6C4353BA44102A0FFILE: Põhja Konn - Põhja Konn - 08 Mängivad pillid, kuu on vees.flac Size: 39444343 Hash: EF845D3D3823BC565F4FFB54884D4186 Accuracy: -m0 Conclusion: CDDA 99% Signature: 6A81F4620737E970E8E32B3EE925F01A7578C7F4FILE: Põhja Konn - Põhja Konn - 07 Ümarruut.flac Size: 45383293 Hash: 0C54C1A6EF3EE10D6B1307C745EBFC21 Accuracy: -m0 Conclusion: CDDA 100% Signature: 9C213105991D995FCA8129F90AFD0D161E944DA5FILE: Põhja Konn - Põhja Konn - 06 Pigilind.flac Size: 24832835 Hash: 94673FB5CA0D2C59A813EE3B68AB102A Accuracy: -m0 Conclusion: CDDA 100% Signature: B9BBD7C2B6187A29E58E687320F62A46817A2662FILE: Põhja Konn - Põhja Konn - 05 Hulkuv laev.flac Size: 41067949 Hash: A030B668B34131FF621CF77A36D1C0E0 Accuracy: -m0 Conclusion: CDDA 100% Signature: D971790FFF54E3823D40A29D37C77D54B8ECE1EEFILE: Põhja Konn - Põhja Konn - 04 Ärkamine.flac Size: 41730335 Hash: 9A9F203D995A61A1A05B92168DB84831 Accuracy: -m0 Conclusion: CDDA 100% Signature: 737D0BA14E2E6C704FB3BED4570ECA5D3B526588FILE: Põhja Konn - Põhja Konn - 03 Tähetund.flac Size: 29810940 Hash: 0D3997BBF7636913CEE90B134FD8CB22 Accuracy: -m0 Conclusion: CDDA 100% Signature: 132571D37223D92CE9C0FD7CE5BA0EB59C31A344FILE: Põhja Konn - Põhja Konn - 02 Põhja Konn.flac Size: 31993337 Hash: 0DFB14B3BC90CF311A421FDB0DC31E32 Accuracy: -m0 Conclusion: CDDA 99% Signature: 675395B6EB207F4856D0FC4215BE7C25F9202173FILE: Põhja Konn - Põhja Konn - 01 Võitlus.flac Size: 38338373 Hash: 6B6F9AA44DE747CF114AB2764889D3CF Accuracy: -m0 Conclusion: CDDA 100% Signature: BE759631912CF5367DD7F0158F1CB45F99487AED

DRM log

foobar2000 1.3.12 / Dynamic Range Meter 1.1.1log date: 2018-12-30 06:12:53
--------------------------------------------------------------------------------Analyzed: Põhja Konn / Põhja Konn--------------------------------------------------------------------------------
DR Peak RMS Duration Track--------------------------------------------------------------------------------DR8 -0.10 dB -9.77 dB 5:36 01-VõitlusDR7 -0.10 dB -8.55 dB 4:06 02-Põhja KonnDR7 -0.10 dB -8.44 dB 4:03 03-TähetundDR7 -0.10 dB -9.73 dB 5:41 04-ÄrkamineDR7 -0.10 dB -8.94 dB 5:24 05-Hulkuv laevDR8 -0.10 dB -11.43 dB 4:01 06-PigilindDR8 -0.10 dB -8.92 dB 6:04 07-ÜmarruutDR7 -0.10 dB -9.49 dB 5:58 08-Mängivad pillid, kuu on veesDR8 -0.17 dB -10.13 dB 4:26 09-Selle ilma igav kainusDR7 -0.10 dB -9.92 dB 5:14 10-IluDR7 -0.10 dB -8.46 dB 3:42 11-Kas ma Eestit unes nägin?--------------------------------------------------------------------------------
Number of tracks: 11Official DR value: DR7
Samplerate: 44100 HzChannels: 2Bits per sample: 16Bitrate: 931 kbpsCodec: FLAC================================================================================


[galltoto.com]_t_5666892.torrent
Торрент: Зарегистрирован ·  [ 2019-01-06 19:01 ] ·  4467ece9269cb26aa7ab36c86bc182f288f4372c

16 KB

Статус: проверено
Скачан: 0 раз
Размер: 371 MB
Оценка: 
(Голосов: 0)
Сказали спасибо: 0  Спасибо
Похожие темы
[Профиль]    [ЛС]
Показать сообщения:    
Ответить на тему

Текущее время: Сегодня 21:04

Часовой пояс: GMT + 7



Вы не можете начинать темы
Вы не можете отвечать на сообщения
Вы не можете редактировать свои сообщения
Вы не можете удалять свои сообщения
Вы не можете голосовать в опросах
Вы не можете прикреплять файлы к сообщениям
Вы можете скачивать файлы


The Grasshoppe season 01 episode 08 | The Late Show with Stephen Colbert Season 4 Episode 72 | Pie pequeño