(Crossover Prog) [WEB] Walfad - Colloids (English version) - 2018, FLAC (tracks), lossless

Ответить на тему
Статистика раздачи [Обновить пиров]
Размер:  263 MB   |    Зарегистрирован:  12 дней   |    Скачан:  0 раз

Полного источника не было: Никогда

 
   
 
 
 
Автор Сообщение

galltoto.com

Создавать темы 06-Янв-2019 19:41

[Цитировать]

-Walfad / Colloids (English version)- -
Жанр: Crossover Prog
Носитель: WEB
Год издания: 2018
Страна исполнителя (группы): Poland
Аудиокодек: FLAC (*.flac)
Тип рипа: tracks
Битрейт аудио: lossless
Продолжительность: 39:28
Источник (релизер): deezer
Наличие сканов в содержимом раздачи: нет 01. Intro (2:04)
02. In a Powder Keg (4:19)
03. Sisyphus' Sons (5:23)
04. Colloids (10:16)
05. Rust (5:39)
06. Jottings (6:54)
07. To Walk on the Water (4:53)

Лог проверки качества

-----------------------
DON'T MODIFY THIS FILE
-----------------------
PERFORMER: auCDtect Task Manager, ver. 1.6.0 RC1 build 1.6.0.1Copyright (c) 2008-2010 y-soft. All rights reservedhttp://y-soft.org
ANALYZER: auCDtect: CD records authenticity detector, version 0.8.2Copyright (c) 2004 Oleg Berngardt. All rights reserved.Copyright (c) 2004 Alexander Djourik. All rights reserved.
FILE: 07. To Walk on the Water.flac Size: 34184830 Hash: E073BF2778C63A99F48E519239EB96E1 Accuracy: -m0 Conclusion: CDDA 100% Signature: 77441450D71A41986364D42FDEB7839E268B0131FILE: 06. Jottings.flac Size: 49335259 Hash: 6FB681FC1D7CBCD85E3AF6DD0A64447E Accuracy: -m0 Conclusion: CDDA 100% Signature: 1A3F01A32C7218E5996F64DD162CB1B1DF23FDB5FILE: 05. Rust.flac Size: 39551391 Hash: 83F4532AB9BB21A1BE407EAE1F3D6031 Accuracy: -m0 Conclusion: CDDA 100% Signature: 9FF4ED31A7514F026F21374E5BDA2CEF9831B998FILE: 04. Colloids.flac Size: 67466173 Hash: 51B382F6D4E715EF782CC90D543C9E26 Accuracy: -m0 Conclusion: CDDA 99% Signature: DC8F2997A7F4AEAF59A847F840D3DE9F87ADEF53FILE: 03. Sisyphus' Sons.flac Size: 38503244 Hash: 7318FA5EFC756EA0158FA2304ADAE24F Accuracy: -m0 Conclusion: CDDA 100% Signature: EF509F3DCA2E6C2C50CEBEDF54A8E7A2EA2FE336FILE: 02. In a Powder Keg.flac Size: 33372320 Hash: B8A069C92386D0BA6356CC48EDFE19CD Accuracy: -m0 Conclusion: CDDA 100% Signature: F3BA42D7D2338FF9D6CB6C3416CEC037BCD6FD99FILE: 01. Intro.flac Size: 12160139 Hash: 64D305D2BF51C10E94DC5AF81BA05022 Accuracy: -m0 Conclusion: CDDA 99% Signature: 1D9ABED4F48CEFA1CC7C156A9C5FD507D5F733B1

Лог DRM

foobar2000 1.3.9 / Dynamic Range Meter 1.1.1log date: 2018-12-30 23:27:29
--------------------------------------------------------------------------------Analyzed: Walfad / Colloids--------------------------------------------------------------------------------
DR Peak RMS Duration Track--------------------------------------------------------------------------------DR7 -0.63 dB -10.70 dB 2:04 01-IntroDR7 -0.19 dB -8.10 dB 4:19 02-In a Powder KegDR9 -0.20 dB -10.08 dB 5:23 03-Sisyphus' SonsDR7 -0.20 dB -10.04 dB 10:16 04-ColloidsDR7 -0.20 dB -9.29 dB 5:39 05-RustDR7 -0.20 dB -8.45 dB 6:54 06-JottingsDR8 -0.20 dB -9.51 dB 4:53 07-To Walk on the Water--------------------------------------------------------------------------------
Number of tracks: 7Official DR value: DR7
Samplerate: 44100 HzChannels: 2Bits per sample: 16Bitrate: 909 kbpsCodec: FLAC================================================================================
--

Состав

- Wojciech Ciuraj / vocals, guitar, mandolin
- Paweł Krawiec / guitar
- Dariusz Tatoj / keyboards
- Radosław Żelazny / bass
- Jakub Dąbrowski / drums


[galltoto.com]_t_5667228.torrent
Торрент: Зарегистрирован ·  [ 2019-01-06 19:01 ] ·  7fe90b476e6d839a9adcddf9626bad969c8688fa

11 KB

Статус: проверено
Скачан: 0 раз
Размер: 263 MB
Оценка: 
(Голосов: 0)
Сказали спасибо: 0  Спасибо
Похожие темы
[Профиль]    [ЛС]
Показать сообщения:    
Ответить на тему

Текущее время: Сегодня 20:57

Часовой пояс: GMT + 7



Вы не можете начинать темы
Вы не можете отвечать на сообщения
Вы не можете редактировать свои сообщения
Вы не можете удалять свои сообщения
Вы не можете голосовать в опросах
Вы не можете прикреплять файлы к сообщениям
Вы можете скачивать файлы


Laptop & Desktop Accessories | 1 Pair Perfect Smile Teeth Cosmetic Veneers Snap On Comfort Covers UpperBottom | Textbooks & Education