(Progressive Rock) [CD] John Hackett & Nick Fletcher - Beyond the Stars - 2018, FLAC (tracks+.cue), lossless

Ответить на тему
Статистика раздачи [Обновить пиров]
Размер:  352 MB   |    Зарегистрирован:  12 дней   |    Скачан:  0 раз

Полного источника не было: Никогда

 
   
 
 
 
Автор Сообщение

galltoto.com

Создавать темы 06-Янв-2019 19:41

[Цитировать]

John Hackett & Nick Fletcher - Beyond the Stars
Жанр: Progressive Rock
Страна-производитель диска: RU (Unofficial Release)
Год издания диска: 2018
Издатель (лейбл): Esoteric Antenna
Номер по каталогу: EVANTCD 1072
Страна: UK
Аудиокодек: FLAC (*.flac)
Тип рипа: tracks+.cue
Битрейт аудио: lossless
Продолжительность: 00:59:02
Источник (релизер): Sket4er
Наличие сканов в содержимом раздачи: да
Треклист:
01. Beyond the Stars
02. A Horse Named Cadillac
03. A Time in Place
04. Leaving It All Behind
05. The Spyglass
06. Mist on the Lake
07. The Waves of Fair Isle
08. Sign of the Times
09. That Ship Has Sailed

Лог создания рипа

Exact Audio Copy V1.3 from 2. September 2016
EAC extraction logfile from 28. December 2018, 21:04
John Hackett, Nick Fletcher / Beyond The Stars
Used drive : TSSTcorpCDDVDW SH-224DB Adapter: 1 ID: 0
Read mode : SecureUtilize accurate stream : YesDefeat audio cache : YesMake use of C2 pointers : No
Read offset correction : 6Overread into Lead-In and Lead-Out : NoFill up missing offset samples with silence : YesDelete leading and trailing silent blocks : NoNull samples used in CRC calculations : YesUsed interface : Native Win32 interface for Win NT & 2000Gap handling : Appended to previous track
Used output format : User Defined EncoderSelected bitrate : 1024 kBit/sQuality : HighAdd ID3 tag : NoCommand line compressor : C:\Program Files (x86)\Exact Audio Copy\win64\flac.exeAdditional command line options : -8 -V -T "ARTIST=%artist%" -T "TITLE=%title%" -T "ALBUM=%albumtitle%" -T "DATE=%year%" -T "TRACKNUMBER=%tracknr%" -T "GENRE=%genre%" -T "COMMENT=%comment%" %source% -o %dest%
TOC of the extracted CD
Track | Start | Length | Start sector | End sector --------------------------------------------------------- 1 | 0:00.00 | 5:17.12 | 0 | 23786 2 | 5:17.12 | 6:45.52 | 23787 | 54213 3 | 12:02.64 | 6:51.72 | 54214 | 85110 4 | 18:54.61 | 4:23.09 | 85111 | 104844 5 | 23:17.70 | 6:33.58 | 104845 | 134377 6 | 29:51.53 | 8:54.19 | 134378 | 174446 7 | 38:45.72 | 3:19.60 | 174447 | 189431 8 | 42:05.57 | 5:21.50 | 189432 | 213556 9 | 47:27.32 | 11:34.07 | 213557 | 265613
Track 1
Filename F:\Sket4er\John Hackett, Nick Fletcher – Beyond The Stars 2018\01 Beyond The Stars.wav
Pre-gap length 0:00:02.00
Peak level 100.0 % Extraction speed 2.0 X Track quality 100.0 % Test CRC 50EE4486 Copy CRC 50EE4486 Track not present in AccurateRip database Copy OK
Track 2
Filename F:\Sket4er\John Hackett, Nick Fletcher – Beyond The Stars 2018\02 A Horse Named Cadillac.wav
Peak level 100.0 % Extraction speed 2.1 X Track quality 99.9 % Test CRC 126DC013 Copy CRC 126DC013 Track not present in AccurateRip database Copy OK
Track 3
Filename F:\Sket4er\John Hackett, Nick Fletcher – Beyond The Stars 2018\03 A Time In Place.wav
Peak level 100.0 % Extraction speed 2.6 X Track quality 100.0 % Test CRC BA804E9D Copy CRC BA804E9D Track not present in AccurateRip database Copy OK
Track 4
Filename F:\Sket4er\John Hackett, Nick Fletcher – Beyond The Stars 2018\04 Leaving It All Behind.wav
Peak level 100.0 % Extraction speed 2.7 X Track quality 100.0 % Test CRC E097BE1E Copy CRC E097BE1E Track not present in AccurateRip database Copy OK
Track 5
Filename F:\Sket4er\John Hackett, Nick Fletcher – Beyond The Stars 2018\05 The Spyglass.wav
Peak level 100.0 % Extraction speed 3.0 X Track quality 100.0 % Test CRC 3D849AE0 Copy CRC 3D849AE0 Track not present in AccurateRip database Copy OK
Track 6
Filename F:\Sket4er\John Hackett, Nick Fletcher – Beyond The Stars 2018\06 Mist On The Lake.wav
Peak level 100.0 % Extraction speed 3.3 X Track quality 100.0 % Test CRC 4ECE01DE Copy CRC 4ECE01DE Track not present in AccurateRip database Copy OK
Track 7
Filename F:\Sket4er\John Hackett, Nick Fletcher – Beyond The Stars 2018\07 The Waves Of Fair Isle.wav
Peak level 99.9 % Extraction speed 3.1 X Track quality 100.0 % Test CRC 925984B3 Copy CRC 925984B3 Track not present in AccurateRip database Copy OK
Track 8
Filename F:\Sket4er\John Hackett, Nick Fletcher – Beyond The Stars 2018\08 Sign Of The Times.wav
Peak level 100.0 % Extraction speed 2.8 X Track quality 99.9 % Test CRC D9AF152B Copy CRC D9AF152B Track not present in AccurateRip database Copy OK
Track 9
Filename F:\Sket4er\John Hackett, Nick Fletcher – Beyond The Stars 2018\09 That Ship Has Sailed.wav
Peak level 100.0 % Extraction speed 3.9 X Track quality 100.0 % Test CRC 81C5AC98 Copy CRC 81C5AC98 Track not present in AccurateRip database Copy OK
None of the tracks are present in the AccurateRip database
No errors occurred
End of status report
---- CUETools DB Plugin V2.1.6
[CTDB TOCID: X.8FOoHGo86aAmoKVnmTInwENwg-] foundSubmit result: X.8FOoHGo86aAmoKVnmTInwENwg- has been confirmedTrack | CTDB Status 1 | (3/3) Accurately ripped 2 | (3/3) Accurately ripped 3 | (3/3) Accurately ripped 4 | (3/3) Accurately ripped 5 | (3/3) Accurately ripped 6 | (3/3) Accurately ripped 7 | (3/3) Accurately ripped 8 | (3/3) Accurately ripped 9 | (3/3) Accurately ripped
==== Log checksum 8A08C2BBC992AE510A6970503B37C6C66ED460C611C39A57EEFB6294B0C5CBC5 ====

Содержание индексной карты (.CUE)

REM GENRE "Progressive Rock"REM DATE 2018REM DISCID 860DD509REM COMMENT "ExactAudioCopy v1.3"PERFORMER "John Hackett, Nick Fletcher"TITLE "Beyond The Stars"REM COMPOSER ""FILE "01 Beyond The Stars.wav" WAVE TRACK 01 AUDIO TITLE "Beyond The Stars" PERFORMER "John Hackett, Nick Fletcher" REM COMPOSER "" INDEX 01 00:00:00FILE "02 A Horse Named Cadillac.wav" WAVE TRACK 02 AUDIO TITLE "A Horse Named Cadillac" PERFORMER "John Hackett, Nick Fletcher" REM COMPOSER "" INDEX 01 00:00:00FILE "03 A Time In Place.wav" WAVE TRACK 03 AUDIO TITLE "A Time In Place" PERFORMER "John Hackett, Nick Fletcher" REM COMPOSER "" INDEX 01 00:00:00FILE "04 Leaving It All Behind.wav" WAVE TRACK 04 AUDIO TITLE "Leaving It All Behind" PERFORMER "John Hackett, Nick Fletcher" REM COMPOSER "" INDEX 01 00:00:00FILE "05 The Spyglass.wav" WAVE TRACK 05 AUDIO TITLE "The Spyglass" PERFORMER "John Hackett, Nick Fletcher" REM COMPOSER "" INDEX 01 00:00:00FILE "06 Mist On The Lake.wav" WAVE TRACK 06 AUDIO TITLE "Mist On The Lake" PERFORMER "John Hackett, Nick Fletcher" REM COMPOSER "" INDEX 01 00:00:00FILE "07 The Waves Of Fair Isle.wav" WAVE TRACK 07 AUDIO TITLE "The Waves Of Fair Isle" PERFORMER "John Hackett, Nick Fletcher" REM COMPOSER "" INDEX 01 00:00:00FILE "08 Sign Of The Times.wav" WAVE TRACK 08 AUDIO TITLE "Sign Of The Times" PERFORMER "John Hackett, Nick Fletcher" REM COMPOSER "" INDEX 01 00:00:00FILE "09 That Ship Has Sailed.wav" WAVE TRACK 09 AUDIO TITLE "That Ship Has Sailed" PERFORMER "John Hackett, Nick Fletcher" REM COMPOSER "" INDEX 01 00:00:00

Лог проверки качества

-----------------------
DON'T MODIFY THIS FILE
-----------------------
PERFORMER: auCDtect Task Manager, ver. 1.5.1RC4 build 1.5.1.5Copyright (c) 2008-2010 y-soft. All rights reservedhttp://y-soft.org
ANALYZER: auCDtect: CD records authenticity detector, version 0.8.2Copyright (c) 2004 Oleg Berngardt. All rights reserved.Copyright (c) 2004 Alexander Djourik. All rights reserved.
FILE: 09 That Ship Has Sailed.flac Size: 73371263 Hash: F2359818D831488DCD30C205EC140DE9 Accuracy: -m0 Conclusion: CDDA 100% Signature: 02398845010EF58DF8AC32B85C2115EE7790E73CFILE: 08 Sign Of The Times.flac Size: 33982394 Hash: 22B41936A4153A7360F97681171D97C5 Accuracy: -m0 Conclusion: CDDA 100% Signature: AE6C2971F37E416751A4C5880102564F5DE10DDFFILE: 07 The Waves Of Fair Isle.flac Size: 16289594 Hash: 4105EEE9FD2057A075DA7617C907211F Accuracy: -m0 Conclusion: CDDA 100% Signature: A17F613D5434966124C7A6D570871FDE8A5D50C8FILE: 06 Mist On The Lake.flac Size: 51207170 Hash: 95AB58A844D5389495FECECFFCB22E3D Accuracy: -m0 Conclusion: CDDA 100% Signature: 046C4251697F3AC6AC59DB9C0E4A10CA476B9C7DFILE: 05 The Spyglass.flac Size: 39924160 Hash: 65EFF2D271471293078355D507268953 Accuracy: -m0 Conclusion: CDDA 100% Signature: EC95BA36F548F9C006A29369D5E7FAABFAF55366FILE: 04 Leaving It All Behind.flac Size: 27259974 Hash: B831C26DED3702105C5789D4864AB159 Accuracy: -m0 Conclusion: CDDA 100% Signature: FB2DBBD50F46AA7E58D210D065E2BB64A5782697FILE: 03 A Time In Place.flac Size: 43676640 Hash: 86C56E61CBF3D50415C70E0495B94802 Accuracy: -m0 Conclusion: CDDA 99% Signature: C59BF0F2868CAE70DC8D4DA39361151CDF7E0B64FILE: 02 A Horse Named Cadillac.flac Size: 39196563 Hash: 30D397EB3CF9F45914BA5CB08232DC83 Accuracy: -m0 Conclusion: CDDA 99% Signature: C48F3ACD99ECABA56D471F2D08A46CECA1C87E7BFILE: 01 Beyond The Stars.flac Size: 34515019 Hash: 4216A1067C5B5DD6B8A011B378833677 Accuracy: -m0 Conclusion: CDDA 100% Signature: A0213BCDF7E813DD61531C7489AAE81567461638

Замер динамического диапазона

foobar2000 1.3.9 / Замер динамического диапазона (DR) 1.1.1Дата отчёта: 2018-12-29 16:26:14
--------------------------------------------------------------------------------Анализ: John Hackett, Nick Fletcher / Beyond The Stars--------------------------------------------------------------------------------
DR Пики RMS Продолжительность трека--------------------------------------------------------------------------------DR10 0.00 дБ -11.18 дБ 5:17 01-Beyond The StarsDR10 0.00 дБ -12.39 дБ 6:46 02-A Horse Named CadillacDR9 0.00 дБ -10.08 дБ 6:52 03-A Time In PlaceDR10 0.00 дБ -10.90 дБ 4:23 04-Leaving It All BehindDR11 0.00 дБ -12.28 дБ 6:34 05-The SpyglassDR10 0.00 дБ -12.29 дБ 8:54 06-Mist On The LakeDR11 0.00 дБ -14.32 дБ 3:20 07-The Waves Of Fair IsleDR10 0.00 дБ -10.58 дБ 5:22 08-Sign Of The TimesDR9 0.00 дБ -10.32 дБ 11:34 09-That Ship Has Sailed--------------------------------------------------------------------------------
Количество треков: 9Реальные значения DR: DR10
Частота: 44100 ГцКаналов: 2Разрядность: 16Битрейт: 845 кбит/сКодек: FLAC================================================================================
Доп. информация

Состав

John Hackett - Vocals, Backing Vocals, Flute, Organ, Mellotron, Piano, Electric Piano
Nick Fletcher - Electric Guitar, Acoustic Guitar [Acoustic Steel String Guitar], Classical Guitar, Guitar [Ambient Guitar], Slide Guitar, Bass Guitar
Simon Hall - 6-String Bass, Fretless Bass [5 String Fretless Bass]
Wayne Proctor - Drums

Об исполнителе

Beyond the Stars sees John and Nick on an epic journey through time and place, from wistful reminiscing about happier times to a vision of a dystopian future. The songs take you on a rollercoaster ride showcasing Nick Fletcher’s incredible virtuosity on the guitar alongside John’s trademark flute. Their writing partnership, first featured on the John Hackett Band album We Are Not Alone, goes from strength to strength and Beyond the Stars shows them to be a musical force to be reckoned with.
http://newprogreleases.blogspot.com/2018/09/john-hackett-nick-fletcher-beyond-stars.html
http://www.7digital.com/artist/john-hackett-and-nick-fletcher/release/beyond-the...C16%2C17%2C9%2C2


[galltoto.com]_t_5667492.torrent
Торрент: Зарегистрирован ·  [ 2019-01-06 19:01 ] ·  316b8184f0a192e6c7aabd913fa9d84da0ad47d2

15 KB

Статус: проверено
Скачан: 0 раз
Размер: 352 MB
Оценка: 
(Голосов: 0)
Сказали спасибо: 0  Спасибо
Похожие темы
[Профиль]    [ЛС]
Показать сообщения:    
Ответить на тему

Текущее время: Сегодня 20:52

Часовой пояс: GMT + 7



Вы не можете начинать темы
Вы не можете отвечать на сообщения
Вы не можете редактировать свои сообщения
Вы не можете удалять свои сообщения
Вы не можете голосовать в опросах
Вы не можете прикреплять файлы к сообщениям
Вы можете скачивать файлы


meetingsbenchmark.co.uk | Tazza a Forma di Pene 12 x 9 x 14cm in Ceramica Addio Regalo Celibato Nubilato | Initial Alphabet Sealing Wax Seal Stamp Kit Sealing Wax Letters Invitation NEW