(Celtic/World/Progressive Folk) [WEB] Secret Sky - Secret Sky - 2016, FLAC (tracks), lossless

Ответить на тему
Статистика раздачи [Обновить пиров]
Размер:  456 MB   |    Зарегистрирован:  12 дней   |    Скачан:  0 раз

Полного источника не было: Никогда

 
   
 
 
 
Автор Сообщение

galltoto.com

Создавать темы 06-Янв-2019 19:41

[Цитировать]

Secret Sky / Secret Sky
Жанр: Celtic/World/Progressive Folk
Носитель: WEB
Год издания: 2016
Страна исполнителя (группы): UK
Аудиокодек: FLAC (*.flac)
Тип рипа: tracks
Битрейт аудио: lossless
Продолжительность: 01:05:52
Источник (релизер): secretskymusic.com
Наличие сканов в содержимом раздачи: PDF

01. Black is the Colour [00:06:41]
02. Searching for Lambs [00:08:08]
03. Winds and Shadows [00:08:14]
04. Nor All Thy Tears [00:06:28]
05. When I Was On Horseback [00:06:01]
06. Moorlough Shore [00:09:58]
07. The Dim Moon City of Delight [00:05:29]
08. Lady Howard (a tale of Dartmoor) [00:06:55]
09. Sun In A Black Sky [00:03:12]
10. When I Was In My Prime (Bonus Track) [00:04:42]
Searching for Lambs Preview Edit

Состав

Caroline Lavelle - Vocals, Cello, Loops
Brian Hughes - Electric & Acoustic Guitars, Oud, Celtic Bouzouki, Guitar Synth, Ambience, Loops & Programming, Fretless Bass, Handclaps
Hugh Marsh - Fiddle, Ambience, Baritone Fiddle, Piano
With:
Tal Bergman - Drums & Percussion, Handclaps
Tim Landers - Electric Bass, Acoustic Bass
Yossi Shakked - Handclaps

Лог проверки качества

-----------------------
DON'T MODIFY THIS FILE
-----------------------
PERFORMER: auCDtect Task Manager, ver. 1.6.0 RC1 build 1.6.0.1Copyright (c) 2008-2010 y-soft. All rights reservedhttp://y-soft.org
ANALYZER: auCDtect: CD records authenticity detector, version 0.8.2Copyright (c) 2004 Oleg Berngardt. All rights reserved.Copyright (c) 2004 Alexander Djourik. All rights reserved.
FILE: Secret Sky - Secret Sky - 10 When I Was In My Prime (Bonus Track).flac Size: 31443214 Hash: 1FD505C9C6244D8D662D14F7B7E7A97A Accuracy: -m0 Conclusion: CDDA 100% Signature: 04A9495C0750B65770E8D41012354EA4A81D5F93FILE: Secret Sky - Secret Sky - 09 Sun In A Black Sky.flac Size: 17441644 Hash: BEBEAC0F33A37D7CF738A3BC2EF4AF58 Accuracy: -m0 Conclusion: CDDA 86% Signature: B57DE54AFCEE4D9D25F54CF070ED11C537F88FA1FILE: Secret Sky - Secret Sky - 08 Lady Howard (A Tale Of Dartmoor).flac Size: 55533020 Hash: CD7704FD6AD62350A6AFD6188EAEAB53 Accuracy: -m0 Conclusion: CDDA 100% Signature: F21B6CB205673677E6AC464FBB097267B2DCB6BFFILE: Secret Sky - Secret Sky - 07 The Dim Moon City Of Delight.flac Size: 38140193 Hash: 158FB56C709B884B6B304D6212D21E0F Accuracy: -m0 Conclusion: CDDA 100% Signature: FAC0EA38E9E9EC4286DBA601942712B94C640F65FILE: Secret Sky - Secret Sky - 06 Moorlough Shore.flac Size: 79448662 Hash: 087195A094D895620AFDD3AE44FA0FFF Accuracy: -m0 Conclusion: CDDA 100% Signature: 0AAED870FC96DA9B02B22D2857CEFC584EBB82BEFILE: Secret Sky - Secret Sky - 05 When I Was On Horseback.flac Size: 44213775 Hash: DB39FD2A8AE0E9C5EAADD66D6F621B08 Accuracy: -m0 Conclusion: CDDA 99% Signature: 4AAB8B2645688204EDD18A139CF07A615DF522ACFILE: Secret Sky - Secret Sky - 04 Nor All Thy Tears.flac Size: 39690149 Hash: 25C781D448F174CD5569B46941FF2ED7 Accuracy: -m0 Conclusion: CDDA 100% Signature: 4460F5922A1BC340985A916E81778C80B3AB25EAFILE: Secret Sky - Secret Sky - 03 Winds And Shadows.flac Size: 63921967 Hash: 4010C2DCDEB2E72D0CE8E60B09D291D1 Accuracy: -m0 Conclusion: CDDA 100% Signature: 7E738E38EF7D3C3B0B1C78DE84DE2DD011AD2975FILE: Secret Sky - Secret Sky - 02 Searching For Lambs.flac Size: 61641114 Hash: B4CD67F687C9E4515A01BD9DDB5107FA Accuracy: -m0 Conclusion: CDDA 100% Signature: C103FF9B4FB632A612B075D5DF8B771448EAACAEFILE: Secret Sky - Secret Sky - 01 Black Is The Colour.flac Size: 40116887 Hash: 24F10214040B540D5A55FE112C709D82 Accuracy: -m0 Conclusion: CDDA 100% Signature: 329F6C862F9A45348FE93C5E6A2D3337271FEB8D

DRM log

foobar2000 1.3.12 / Dynamic Range Meter 1.1.1log date: 2019-01-01 12:34:46
--------------------------------------------------------------------------------Analyzed: Secret Sky / Secret Sky--------------------------------------------------------------------------------
DR Peak RMS Duration Track--------------------------------------------------------------------------------DR10 -0.27 dB -11.91 dB 6:42 01-Secret Sky - Secret Sky - 01 - Black is the ColourDR7 0.00 dB -8.62 dB 8:09 02-Secret Sky - Secret Sky - 02 - Searching for LambsDR6 0.00 dB -8.05 dB 8:14 03-Secret Sky - Secret Sky - 03 - Winds and ShadowsDR9 -0.17 dB -10.68 dB 6:29 04-Secret Sky - Secret Sky - 04 - Nor All Thy TearsDR7 0.00 dB -8.17 dB 6:02 05-Secret Sky - Secret Sky - 05 - When I Was On HorsebackDR8 0.00 dB -9.09 dB 9:58 06-Secret Sky - Secret Sky - 06 - Moorlough ShoreDR9 -0.25 dB -10.05 dB 5:30 07-Secret Sky - Secret Sky - 07 - The Dim Moon City of DelightDR7 0.00 dB -7.67 dB 6:55 08-Secret Sky - Secret Sky - 08 - Lady Howard (a tale of Dartmoor)DR10 -1.16 dB -15.08 dB 3:12 09-Secret Sky - Secret Sky - 09 - Sun In A Black SkyDR9 -0.24 dB -10.40 dB 4:43 10-When I Was In My Prime (Bonus Track)--------------------------------------------------------------------------------
Number of tracks: 10Official DR value: DR8
Samplerate: 44100 HzChannels: 2Bits per sample: 16Bitrate: 890 kbpsCodec: FLAC================================================================================


[galltoto.com]_t_5667845.torrent
Торрент: Зарегистрирован ·  [ 2019-01-06 19:01 ] ·  ba17c247366444177a33dcf33988ed6e2b8a1d6c

19 KB

Статус: проверено
Скачан: 0 раз
Размер: 456 MB
Оценка: 
(Голосов: 0)
Сказали спасибо: 0  Спасибо
Похожие темы
[Профиль]    [ЛС]
Показать сообщения:    
Ответить на тему

Текущее время: Сегодня 20:50

Часовой пояс: GMT + 7



Вы не можете начинать темы
Вы не можете отвечать на сообщения
Вы не можете редактировать свои сообщения
Вы не можете удалять свои сообщения
Вы не можете голосовать в опросах
Вы не можете прикреплять файлы к сообщениям
Вы можете скачивать файлы


Animação | Thuyết Minh | Gina Rodriguez