(Psychedelic Rock, Progressive Rock) [CD] Aorta - Aorta 2 - 1970 (Buy Or Die Records Italy 2004), FLAC (image+.cue), lossless

Ответить на тему
Статистика раздачи [Обновить пиров]
Размер:  232 MB   |    Зарегистрирован:  1 месяц 15 дней   |    Скачан:  0 раз

Полного источника не было: Никогда

 
   
 
 
 
Автор Сообщение

galltoto.com

Создавать темы 06-Янв-2019 19:41

[Цитировать]

Aorta - Aorta 2
Жанр: Psychedelic Rock, Progressive Rock
Страна-производитель диска: Italy (Unofficial Release)
Год издания диска: 2004
Издатель (лейбл): Buy Or Die Records
Номер по каталогу: BOD 126
Страна: USA
Аудиокодек: FLAC (*.flac)
Тип рипа: image+.cue
Битрейт аудио: lossless
Продолжительность: 00:36:56
Источник (релизер): Sket4er
Наличие сканов в содержимом раздачи: да
Треклист:
01. Willie Jean
02. Little Bonnie
03. Blythe Spirit
04. Beg For His Forgiveness
05. Egypt
06. His Faith In Men
07. Devil, Maggot & Son
08. Sandcastles
09. Pickin' Blues
10. Fallin' Behind

Лог создания рипа

Exact Audio Copy V1.3 from 2. September 2016
EAC extraction logfile from 31. December 2018, 19:11
Aorta / Aorta 2
Used drive : TSSTcorpCDDVDW SH-224DB Adapter: 1 ID: 0
Read mode : SecureUtilize accurate stream : YesDefeat audio cache : YesMake use of C2 pointers : No
Read offset correction : 6Overread into Lead-In and Lead-Out : NoFill up missing offset samples with silence : YesDelete leading and trailing silent blocks : NoNull samples used in CRC calculations : YesUsed interface : Native Win32 interface for Win NT & 2000
Used output format : User Defined EncoderSelected bitrate : 1024 kBit/sQuality : HighAdd ID3 tag : NoCommand line compressor : C:\Program Files (x86)\Exact Audio Copy\win64\flac.exeAdditional command line options : -8 -V -T "ARTIST=%artist%" -T "TITLE=%title%" -T "ALBUM=%albumtitle%" -T "DATE=%year%" -T "TRACKNUMBER=%tracknr%" -T "GENRE=%genre%" -T "COMMENT=%comment%" %source% -o %dest%
TOC of the extracted CD
Track | Start | Length | Start sector | End sector --------------------------------------------------------- 1 | 0:00.00 | 3:04.15 | 0 | 13814 2 | 3:04.15 | 4:20.13 | 13815 | 33327 3 | 7:24.28 | 2:49.58 | 33328 | 46060 4 | 10:14.11 | 4:56.46 | 46061 | 68306 5 | 15:10.57 | 4:07.04 | 68307 | 86835 6 | 19:17.61 | 5:10.37 | 86836 | 110122 7 | 24:28.23 | 2:51.52 | 110123 | 122999 8 | 27:20.00 | 2:55.74 | 123000 | 136198 9 | 30:15.74 | 3:14.02 | 136199 | 150750 10 | 33:30.01 | 3:25.64 | 150751 | 166189
Range status and errors
Selected range
Filename F:\Sket4er\Aorta – Aorta 2 (1970) 2004\Aorta - Aorta 2.wav
Peak level 100.0 % Extraction speed 2.9 X Range quality 100.0 % Test CRC 5E556CEC Copy CRC 5E556CEC Copy OK
No errors occurred
AccurateRip summary
Track 1 cannot be verified as accurate (confidence 1) [C1E4E0B0], AccurateRip returned [A94DCB33] (AR v2)Track 2 cannot be verified as accurate (confidence 1) [F3A92345], AccurateRip returned [46EB2E5E] (AR v2)Track 3 cannot be verified as accurate (confidence 1) [F1C3C79E], AccurateRip returned [FEE72569] (AR v2)Track 4 cannot be verified as accurate (confidence 1) [D7E6942B], AccurateRip returned [5A76C7AF] (AR v2)Track 5 cannot be verified as accurate (confidence 1) [0DD40235], AccurateRip returned [F7D9519E] (AR v2)Track 6 cannot be verified as accurate (confidence 1) [E6644869], AccurateRip returned [868F7AD1] (AR v2)Track 7 cannot be verified as accurate (confidence 1) [9C7D781F], AccurateRip returned [4B0FACC2] (AR v2)Track 8 cannot be verified as accurate (confidence 1) [85F7CD61], AccurateRip returned [7D87F0DB] (AR v2)Track 9 cannot be verified as accurate (confidence 1) [2FB53E27], AccurateRip returned [4FB21835] (AR v2)Track 10 cannot be verified as accurate (confidence 1) [1E9EBE80], AccurateRip returned [A4AB6483] (AR v2)
No tracks could be verified as accurateYou may have a different pressing from the one(s) in the database
End of status report
---- CUETools DB Plugin V2.1.6
[CTDB TOCID: XlDDpQiYkBUwAXadSlQoYBlE10Q-] foundSubmit result: XlDDpQiYkBUwAXadSlQoYBlE10Q- has been confirmedTrack | CTDB Status 1 | (1/1) Accurately ripped 2 | (1/1) Accurately ripped 3 | (1/1) Accurately ripped 4 | (1/1) Accurately ripped 5 | (1/1) Accurately ripped 6 | (1/1) Accurately ripped 7 | (1/1) Accurately ripped 8 | (1/1) Accurately ripped 9 | (1/1) Accurately ripped 10 | (1/1) Accurately ripped
==== Log checksum 52898E3C8BBBE6E50A9892DB86A597C31D039B7D83A97E42D4847A6E73DDC842 ====

Содержание индексной карты (.CUE)

REM GENRE "Psychedelic Rock"REM DATE 1970REM DISCID 7708A70AREM COMMENT "ExactAudioCopy v1.3"PERFORMER "Aorta"TITLE "Aorta 2"REM COMPOSER ""FILE "Aorta - Aorta 2.flac" WAVE TRACK 01 AUDIO TITLE "Willie Jean" PERFORMER "Aorta" REM COMPOSER "" INDEX 01 00:00:00 TRACK 02 AUDIO TITLE "Little Bonnie" PERFORMER "Aorta" REM COMPOSER "" INDEX 01 03:04:15 TRACK 03 AUDIO TITLE "Bly The Spirit" PERFORMER "Aorta" REM COMPOSER "" INDEX 01 07:24:28 TRACK 04 AUDIO TITLE "Beg For His Forgiveness" PERFORMER "Aorta" REM COMPOSER "" INDEX 01 10:14:11 TRACK 05 AUDIO TITLE "Egypt" PERFORMER "Aorta" REM COMPOSER "" INDEX 01 15:10:57 TRACK 06 AUDIO TITLE "His Faith In Man" PERFORMER "Aorta" REM COMPOSER "" INDEX 01 19:17:61 TRACK 07 AUDIO TITLE "Devil, Maggot & Son" PERFORMER "Aorta" REM COMPOSER "" INDEX 01 24:28:23 TRACK 08 AUDIO TITLE "Sandcastles" PERFORMER "Aorta" REM COMPOSER "" INDEX 01 27:20:00 TRACK 09 AUDIO TITLE "Pickin' Blues" PERFORMER "Aorta" REM COMPOSER "" INDEX 01 30:15:74 TRACK 10 AUDIO TITLE "Fallin' Behind" PERFORMER "Aorta" REM COMPOSER "" INDEX 01 33:30:01

Лог проверки качества

-----------------------
DON'T MODIFY THIS FILE
-----------------------
PERFORMER: auCDtect Task Manager, ver. 1.5.1RC4 build 1.5.1.5Copyright (c) 2008-2010 y-soft. All rights reservedhttp://y-soft.org
ANALYZER: auCDtect: CD records authenticity detector, version 0.8.2Copyright (c) 2004 Oleg Berngardt. All rights reserved.Copyright (c) 2004 Alexander Djourik. All rights reserved.
FILE: Aorta - Aorta 2.flac Size: 238122678 Hash: 96F89C34A6D8615D1FE59CE05B2E6C85 Accuracy: -m0 Conclusion: CDDA 100% Signature: 2D514AED9C6863ECB30147F8D246C617C2C635DA

Замер динамического диапазона

foobar2000 1.3.9 / Замер динамического диапазона (DR) 1.1.1Дата отчёта: 2019-01-01 17:03:12
--------------------------------------------------------------------------------Анализ: Aorta / Aorta 2--------------------------------------------------------------------------------
DR Пики RMS Продолжительность трека--------------------------------------------------------------------------------DR9 0.00 дБ -12.01 дБ 3:04 1-Willie JeanDR10 0.00 дБ -11.46 дБ 4:20 2-Little BonnieDR12 -0.49 дБ -16.78 дБ 2:50 3-Bly The SpiritDR10 0.00 дБ -11.96 дБ 4:57 4-Beg For His ForgivenessDR12 0.00 дБ -14.17 дБ 4:07 5-EgyptDR11 -0.22 дБ -13.21 дБ 5:10 6-His Faith In ManDR10 0.00 дБ -12.02 дБ 2:52 7-Devil, Maggot & SonDR11 0.00 дБ -15.72 дБ 2:56 8-SandcastlesDR11 -0.19 дБ -12.84 дБ 3:14 9-Pickin' BluesDR11 0.00 дБ -14.66 дБ 3:26 10-Fallin' Behind--------------------------------------------------------------------------------
Количество треков: 10Реальные значения DR: DR11
Частота: 44100 ГцКаналов: 2Разрядность: 16Битрейт: 859 кбит/сКодек: FLAC================================================================================
Доп. информация

Состав

Jim Donlinger - Lead Guitar, Acoustic Guitar, Vocals
Michael Been - Bass, Acoustic Guitar, Vocals
Jim Nyeholt - Piano, Organ
Tom Donlinger - Drums, Bongos, Marimba, Congas, Percussion
Howard Levy - Conga on "Egypt"
Michael Ayre - Conga on "Egypt"
Kenneth Elliot - Cowbell on "Egypt"
George Edwards - Vocals on "Willie Jean"

Об исполнителе

During the mid-'60s, the members of Aorta -- originally hailing from Rockford, IL -- had previously been in a group called the Exceptions. Early members of this group included Kal David (later of Illinois Speed Press and H.P. Lovecraft) and Peter Cetera (Chicago). The Exceptions were a soulful, if unremarkable, Top 40s cover group who were nevertheless acclaimed for their "exceptional" musicianship. They were one of the more popular acts on the greater Chicago local scene, and released a handful of singles on numerous Midwest labels -- Tollie, Cameo, Quill -- and for L.A.-based Capitol. For the last of these releases, the band dropped the "s" from their name and began calling themselves the Exception (a compilation for the Collectables label, The Quill Records Story, collects two of their singles). They also recorded an EP called "A Rock & Roll Mass for the Flair label; it featured six different rock songs with words taken from various religious prayers. As each member of the group -- with the exception of bassist Peter Cetera -- already had an eye toward expanding their original material to include a more "psychedelic" sound, they soon reconfigured themselves as Aorta, and, in late 1968, recorded a single for Atlantic. Eventually, producer Bill Traut (American Breed) approached them on behalf of Dunwich Productions, Inc., and -- with Bobby Jones taking over on bass after Cetera's departure -- they accepted his offer to record their debut album for Columbia in 1969. They recorded two albums under the name Aorta. The first of these, the self-titled Aorta, is today highly acclaimed as a lite-psych album of some minor renown, and though it managed to chart on Billboard's album charts, it failed to do what was expected. A revised version of the group -- still led by Jim Donlinger and now featuring Michael Been on bass/guitar/vocals -- recorded the drastically different second album, Aorta 2, for the Happy Tiger label. Jim Donlinger -- who along with his brother and Jim Nyeholt (during a brief period between the two albums), had all played in the Rotary Connection -- later left Aorta to join Lovecraft (formerly H.P. Lovecraft, who were signed to Reprise at the time), while Billy Herman would eventually move on to join New Colony Six. Michael Been later played with Moby Grape members Jerry Millerand Bob Mosley in Fine Wine, and ultimately achieved his biggest success with the Call. Been is also the father of Robert Turner of Black Rebel Motorcycle Club. The original Aorta later re-formed (joining another great Chicago-area group, the Cryan' Shames) to do promo spots for the U.S. Armed Forces on a very rare promotional LP. They've appeared on numerous compilations over the years. Aorta was re-issued on CD in 1996.
http://www.allmusic.com/artist/aorta-mn0001162511/biography
[url=http://en.wikipedia.org/wiki/Aorta_(band)]http://en.wikipedia.org/wiki/Aorta_(band)[/url]


[galltoto.com]_t_5667965.torrent
Торрент: Зарегистрирован ·  [ 2019-01-06 19:01 ] ·  5110cc8bbdce86305b0b6a46ac9c85d1d932ba48

19 KB

Статус: проверено
Скачан: 0 раз
Размер: 232 MB
Оценка: 
(Голосов: 0)
Сказали спасибо: 0  Спасибо
Похожие темы
[Профиль]    [ЛС]
Показать сообщения:    
Ответить на тему

Текущее время: Сегодня 19:02

Часовой пояс: GMT + 7



Вы не можете начинать темы
Вы не можете отвечать на сообщения
Вы не можете редактировать свои сообщения
Вы не можете удалять свои сообщения
Вы не можете голосовать в опросах
Вы не можете прикреплять файлы к сообщениям
Вы можете скачивать файлы


Homefront 2 – PC | Case Study- Economic Environment | Femmes Fatales