(Heavy Psych, Psychedelic Rock) [CD] Fraction - Moon Blood - 1971 (Radioactive Records UK 2005), FLAC (image+.cue), lossless

Ответить на тему
Статистика раздачи [Обновить пиров]
Размер:  195 MB   |    Зарегистрирован:  12 дней   |    Скачан:  0 раз

Полного источника не было: Никогда

 
   
 
 
 
Автор Сообщение

galltoto.com

Создавать темы 06-Янв-2019 19:41

[Цитировать]

Fraction - Moon Blood
Жанр: Heavy Psych, Psychedelic Rock
Страна-производитель диска: UK (Unofficial Release)
Год издания диска: 2005
Издатель (лейбл): Radioactive Records
Номер по каталогу: RRCD054
Страна: USA
Аудиокодек: FLAC (*.flac)
Тип рипа: image+.cue
Битрейт аудио: lossless
Продолжительность: 00:31:15
Источник (релизер): Sket4er
Наличие сканов в содержимом раздачи: да
Треклист:
01. Sanc-Divided
02. Come Out Of Her
03. Eye Of The Huricane
04. Sons Come To Birth
05. This Bird (Sky High)
06. Untitled

Лог создания рипа

Exact Audio Copy V1.3 from 2. September 2016
EAC extraction logfile from 31. December 2018, 19:56
Fraction / Moon Blood
Used drive : TSSTcorpCDDVDW SH-224DB Adapter: 1 ID: 0
Read mode : SecureUtilize accurate stream : YesDefeat audio cache : YesMake use of C2 pointers : No
Read offset correction : 6Overread into Lead-In and Lead-Out : NoFill up missing offset samples with silence : YesDelete leading and trailing silent blocks : NoNull samples used in CRC calculations : YesUsed interface : Native Win32 interface for Win NT & 2000
Used output format : User Defined EncoderSelected bitrate : 1024 kBit/sQuality : HighAdd ID3 tag : NoCommand line compressor : C:\Program Files (x86)\Exact Audio Copy\win64\flac.exeAdditional command line options : -8 -V -T "ARTIST=%artist%" -T "TITLE=%title%" -T "ALBUM=%albumtitle%" -T "DATE=%year%" -T "TRACKNUMBER=%tracknr%" -T "GENRE=%genre%" -T "COMMENT=%comment%" %source% -o %dest%
TOC of the extracted CD
Track | Start | Length | Start sector | End sector --------------------------------------------------------- 1 | 0:00.00 | 3:52.13 | 0 | 17412 2 | 3:52.13 | 4:57.53 | 17413 | 39740 3 | 8:49.66 | 8:55.14 | 39741 | 79879 4 | 17:45.05 | 5:26.50 | 79880 | 104379 5 | 23:11.55 | 4:38.58 | 104380 | 125287 6 | 27:50.38 | 3:24.60 | 125288 | 140647
Range status and errors
Selected range
Filename F:\Sket4er\Fraction – Moon Blood (1971) 2005\Fraction - Moon Blood.wav
Peak level 99.4 % Extraction speed 2.8 X Range quality 100.0 % Test CRC 56BF2FB6 Copy CRC 56BF2FB6 Copy OK
No errors occurred
AccurateRip summary
Track 1 cannot be verified as accurate (confidence 1) [AB9A8F5A], AccurateRip returned [58596C5B] (AR v2)Track 2 cannot be verified as accurate (confidence 1) [FC132DA1], AccurateRip returned [D863545B] (AR v2)Track 3 cannot be verified as accurate (confidence 1) [B31655EF], AccurateRip returned [D04F5259] (AR v2)Track 4 cannot be verified as accurate (confidence 1) [C0A4FDB9], AccurateRip returned [680A285B] (AR v2)Track 5 cannot be verified as accurate (confidence 1) [7AA5D2F5], AccurateRip returned [E490D538] (AR v2)Track 6 cannot be verified as accurate (confidence 1) [B87231CD], AccurateRip returned [76214018] (AR v2)
No tracks could be verified as accurateYou may have a different pressing from the one(s) in the database
End of status report
---- CUETools DB Plugin V2.1.6
[CTDB TOCID: Te63X7iRVOvymdjicrTcL2isGkQ-] foundSubmit result: Te63X7iRVOvymdjicrTcL2isGkQ- has been confirmedTrack | CTDB Status 1 | (4/4) Accurately ripped 2 | (4/4) Accurately ripped 3 | (4/4) Accurately ripped 4 | (4/4) Accurately ripped 5 | (4/4) Accurately ripped 6 | (4/4) Accurately ripped
==== Log checksum 5C71E95E16A44D5B1452B07E28CBF0722112C1CFA3558853CA6AC951BDCFA4C7 ====

Содержание индексной карты (.CUE)

REM GENRE "Psychedelic Rock"REM DATE 1971REM DISCID 42075306REM COMMENT "ExactAudioCopy v1.3"PERFORMER "Fraction"TITLE "Moon Blood"REM COMPOSER ""FILE "Fraction - Moon Blood.flac" WAVE TRACK 01 AUDIO TITLE "Sanc-Divided" PERFORMER "Fraction" REM COMPOSER "" INDEX 01 00:00:00 TRACK 02 AUDIO TITLE "Come Out Of Her" PERFORMER "Fraction" REM COMPOSER "" INDEX 01 03:52:13 TRACK 03 AUDIO TITLE "Eye Of The Hurricane" PERFORMER "Fraction" REM COMPOSER "" INDEX 01 08:49:66 TRACK 04 AUDIO TITLE "Sons Come To Birth" PERFORMER "Fraction" REM COMPOSER "" INDEX 01 17:45:05 TRACK 05 AUDIO TITLE "This Bird (Sky High)" PERFORMER "Fraction" REM COMPOSER "" INDEX 01 23:11:55 TRACK 06 AUDIO TITLE "Untitled" PERFORMER "Fraction" REM COMPOSER "" INDEX 01 27:50:38

Лог проверки качества

-----------------------
DON'T MODIFY THIS FILE
-----------------------
PERFORMER: auCDtect Task Manager, ver. 1.5.1RC4 build 1.5.1.5Copyright (c) 2008-2010 y-soft. All rights reservedhttp://y-soft.org
ANALYZER: auCDtect: CD records authenticity detector, version 0.8.2Copyright (c) 2004 Oleg Berngardt. All rights reserved.Copyright (c) 2004 Alexander Djourik. All rights reserved.
FILE: Fraction - Moon Blood.flac Size: 201344808 Hash: 351209015FA0714A362BD0C49DC26745 Accuracy: -m0 Conclusion: CDDA 100% Signature: 546A517D58B3A5794F9A56BAFA22D4613A21D157

Замер динамического диапазона

foobar2000 1.3.9 / Замер динамического диапазона (DR) 1.1.1Дата отчёта: 2019-01-01 17:03:57
--------------------------------------------------------------------------------Анализ: Fraction / Moon Blood--------------------------------------------------------------------------------
DR Пики RMS Продолжительность трека--------------------------------------------------------------------------------DR11 -0.06 дБ -13.18 дБ 3:52 1-Sanc-DividedDR11 -0.06 дБ -13.04 дБ 4:58 2-Come Out Of HerDR10 -0.06 дБ -13.03 дБ 8:55 3-Eye Of The HurricaneDR10 -0.06 дБ -12.31 дБ 5:27 4-Sons Come To BirthDR12 -0.05 дБ -13.91 дБ 4:39 5-This Bird (Sky High)DR10 -0.05 дБ -11.33 дБ 3:25 6-Untitled--------------------------------------------------------------------------------
Количество треков: 6Реальные значения DR: DR11
Частота: 44100 ГцКаналов: 2Разрядность: 16Битрейт: 859 кбит/сКодек: FLAC================================================================================
Доп. информация

Состав

Jim Beach - Lead Vocals
Don Swanson - Lead Guitar
Bob Meinel - Rhythm Guitar
Victor Hemme - Bass Guitar
Curt Swanson - Percusion

Об исполнителе

Based in LA, Fraction was a ragged collection of working-class musicians–the line-up was ringleader Jim Beach–vocals; Don Swanson–lead guitar, Curt Swanson–drums, Victor Hemme–bass, and Robert Meinel–rhythm guitar. Beach himself describes those early days: “The guys met through various acquaintances that we had in LA. All of us had been in bands before, but were seeking something with more teeth. We had a small studio in an industrial complex in North Hollywood and started practicing sometimes as early as 4:30 AM. We all had day jobs, so we did what we could.” Amazingly the recording sessions for the album were recorded similarly on the fly, as Beach further states: “The Moonblood recording took place at Whitney’s Studio in Glendale, CA, early in 1971. On a strict budget, these songs were recorded in less than three hours””all of them “one takes.” We played, all 5 of us, simultaneously– there were no studio effects, no overdubbing or any additional sound effects added. Basically what you hear is considered ‘old school’ recording.”
This workmanlike description in no way prepares one for the pure tortured genius the session wrought. Particularly noteworthy is Beach’s vocals””as commonly stated, the spirit of Jim Morrison is conjured in his deep baritone, which gives way to unparalleled pained howls, at times bathed in delay which trails into the abyss. Fascinatingly enough, Beach cites the much punker Love as his fave LA band over the Doors, and also gives influence-nods to proto-everything rockers The Yardbirds and to Dylan, whose dark word tapestries surely inspired Beach’s lyrics (though lines from The Doors’ “L’America” pop up on the LP) Whatever the case, the man clearly has a vision, as even the stark sleeve concept is Beach’s own.
Equally as integral to the Fraction sound is lead guitarist Don Swanson””his blown-out fuzz riffs set a template for what is now commonly known as “stoner rock” or “acid punk,” and his solos consist of jagged, wah-wah-ed shards of notes, with his amplifier clearly pushed to the limit. Beach says: “Don’s guitar was always my driving force and he did everything he could to keep it over the top. You’d never know that (his sound) was coming from an old, broken down Esquire. Don kept it alive!” The other members contributions shouldn’t be underappreciated though– drummer Curt Swanson keeps things at a constant simmer, and then boils over when the whole band launches into snarling glory. The band and LP as a whole equals something indescribably intense from start to finish””comparisons to the Detroit late 60s high-energy bands like The Stooges and MC5 abound, as well as the sort of late 60s damaged spirit lurking in biker clubs and disgruntled Vietnam vets. The song cycle on side 1 of the LP in particular cuts to the emotional core, with severely charged dark lyrics like “Extend your thumbs and burn the darkness out of her.”
http://rateyourmusic.com/release/album/fraction/moon_blood/
http://shop.mexicansummer.com/product/fraction-moon-blood/
http://heavy70s.blogspot.com/2016/05/fraction-moon-blood-1971.html


[galltoto.com]_t_5667972.torrent
Торрент: Зарегистрирован ·  [ 2019-01-06 19:01 ] ·  2ecd7dffd0a21e6f0ccdd823e1a97b44ffddc19b

16 KB

Статус: проверено
Скачан: 0 раз
Размер: 195 MB
Оценка: 
(Голосов: 0)
Сказали спасибо: 0  Спасибо
Похожие темы
[Профиль]    [ЛС]
Показать сообщения:    
Ответить на тему

Текущее время: Сегодня 20:49

Часовой пояс: GMT + 7



Вы не можете начинать темы
Вы не можете отвечать на сообщения
Вы не можете редактировать свои сообщения
Вы не можете удалять свои сообщения
Вы не можете голосовать в опросах
Вы не можете прикреплять файлы к сообщениям
Вы можете скачивать файлы


Series Modern Family 10x10 | Phiêu Lưu (漂流) | Open Shoulder Crisscross Knitted Dress