(Psychedelic/Space Rock, Acid Rock) [CD/WEB] Sleeping Pandora - Discography - 2017-2018 - 3 Albums, FLAC (tracks+.cue), lossless

Ответить на тему
Статистика раздачи [Обновить пиров]
Размер:  1.15 GB   |    Зарегистрирован:  1 месяц 15 дней   |    Скачан:  0 раз

Полного источника не было: Никогда

 
   
 
 
 
Автор Сообщение

galltoto.com

Создавать темы 06-Янв-2019 19:41

[Цитировать]

-Sleeping Pandora - Discography - 2017-2018-
Страна исполнителя: Germany
Жанр: Progressive Rock, Psychedelic/Space Rock, Acid Rock || Носитель: CD/WEB || Аудио кодек: FLAC || Тип рипа: (tracks + .cue) ||
Битрейт аудио: lossless || Включает: Full artwork, jpg, 600 dpi || Общая длительность: 03:19:55 ||

Об исполнителе (группе):

Sleeping Pandora is the solo project of former Cosmic Fall guitarist Mathias Rosmann, whose fluid style was one of the key reasons why I liked their sound so much. As far as I’m away this is his first output after leaving the band, and from the first bars that style is evident. I find that Rosmann has this way of putting the listener (well this listener at any rate) at ease. The album consists of six tracks each weighing in at between twelve and sixteen minutes have a smoothness to them which at no point falls into passivity, yet somehow have the ability to make you feel good. ‘Through The Maze’ (featured below), for instance, has a blues tinge to it while developing a psychedelic atmosphere that sees the track gently inveigling itself into your psyche, with each repeat feeling that bit more intense. Elsewhere ‘Starsailor’ (and I felt this before seeing the title) really gives you a sense of soaring high above the clouds, while ‘Sunrizer’ is a much more intense and heavier proposition altogether. This then is a album of varied themes around Rosmann’s distinctive guitar, and you get the sense that he is feeling his way as a solo artist, trying different approaches and accompaniments… there are prog and jazz elements elsewhere too. In doing so has produced a set of tracks that are never less than satisfying and often much more than that.
[by Simon, psychinsightmusic.com]
---

2017 - Quiet Pass (Clostridium #n/a)

Носитель: CD (Album, Limited Edition of 300 copies, Digipak)
Год издания оригинала: 2017
Страна - производитель диска: Germany
Издатель (лейбл): Clostridium Records
Номер по каталогу: n/a
Продолжительность: 01:19:46
Источник (релизер): Моя коллекция, мой рип

Трэклист:
1. Spherica (12:32)
2. Through The Maze (10:42)
3. Starsailor (12:14)
4. Sunrizer (15:33)
5. Silvershaker (16:17)
6. Icarus (12:26)

Лог создания рипа (17.10.2018)

Exact Audio Copy V1.3 from 2. September 2016
EAC extraction logfile from 17. October 2018, 18:46
Sleeping Pandora / Quiet Pass
Used drive : ATAPI iHAS122 F Adapter: 1 ID: 0
Read mode : SecureUtilize accurate stream : YesDefeat audio cache : YesMake use of C2 pointers : No
Read offset correction : 6Overread into Lead-In and Lead-Out : NoFill up missing offset samples with silence : YesDelete leading and trailing silent blocks : NoNull samples used in CRC calculations : YesUsed interface : Native Win32 interface for Win NT & 2000Gap handling : Appended to previous track
Used output format : User Defined EncoderSelected bitrate : 1024 kBit/sQuality : HighAdd ID3 tag : YesCommand line compressor : C:\Program Files (x86)\Exact Audio Copy\Flac\flac.exeAdditional command line options : -6 -V -T "ARTIST=%artist%" -T "TITLE=%title%" -T "ALBUM=%albumtitle%" -T "DATE=%year%" -T "TRACKNUMBER=%tracknr%" -T "GENRE=%genre%" -T "COMMENT=%comment%" %hascover%--picture="%coverfile%"%hascover% %source% -o %dest%
TOC of the extracted CD
Track | Start | Length | Start sector | End sector --------------------------------------------------------- 1 | 0:00.00 | 12:40.00 | 0 | 56999 2 | 12:40.00 | 10:35.00 | 57000 | 104624 3 | 23:15.00 | 12:05.00 | 104625 | 158999 4 | 35:20.00 | 15:33.25 | 159000 | 228999 5 | 50:53.25 | 15:55.00 | 229000 | 300624 6 | 66:48.25 | 12:10.00 | 300625 | 355374
Track 1
Filename E:\Music\olaf_alien\SLEEPING PANDORA\2017 - Quiet Pass\01 - Spherica.wav
Pre-gap length 0:00:02.00
Peak level 100.0 % Extraction speed 6.6 X Track quality 100.0 % Test CRC 209CD398 Copy CRC 209CD398 Track not present in AccurateRip database Copy OK
Track 2
Filename E:\Music\olaf_alien\SLEEPING PANDORA\2017 - Quiet Pass\02 - Through the Maze.wav
Peak level 100.0 % Extraction speed 7.9 X Track quality 100.0 % Test CRC 4DF1452A Copy CRC 4DF1452A Track not present in AccurateRip database Copy OK
Track 3
Filename E:\Music\olaf_alien\SLEEPING PANDORA\2017 - Quiet Pass\03 - Starsailor.wav
Peak level 100.0 % Extraction speed 9.0 X Track quality 100.0 % Test CRC 96B1134A Copy CRC 96B1134A Track not present in AccurateRip database Copy OK
Track 4
Filename E:\Music\olaf_alien\SLEEPING PANDORA\2017 - Quiet Pass\04 - Sunrizer.wav
Peak level 100.0 % Extraction speed 10.2 X Track quality 100.0 % Test CRC 3D5683C5 Copy CRC 3D5683C5 Track not present in AccurateRip database Copy OK
Track 5
Filename E:\Music\olaf_alien\SLEEPING PANDORA\2017 - Quiet Pass\05 - Silvershaker.wav
Peak level 100.0 % Extraction speed 11.4 X Track quality 100.0 % Test CRC E8FC5997 Copy CRC E8FC5997 Track not present in AccurateRip database Copy OK
Track 6
Filename E:\Music\olaf_alien\SLEEPING PANDORA\2017 - Quiet Pass\06 - Icarus.wav
Peak level 100.0 % Extraction speed 12.1 X Track quality 100.0 % Test CRC 565F0758 Copy CRC 565F0758 Track not present in AccurateRip database Copy OK
None of the tracks are present in the AccurateRip database
No errors occurred
End of status report
---- CUETools DB Plugin V2.1.6
[CTDB TOCID: 82NUo3fs_6innaIWRvQcAzhMeDE-] foundSubmit result: 82NUo3fs_6innaIWRvQcAzhMeDE- has been confirmedTrack | CTDB Status 1 | (1/1) Accurately ripped 2 | (1/1) Accurately ripped 3 | (1/1) Accurately ripped 4 | (1/1) Accurately ripped 5 | (1/1) Accurately ripped 6 | (1/1) Accurately ripped
==== Log checksum 72A5FDE3757FB08B2349B931F58AD38AC7BEB231445A36D166E3CEA2FCF8DB4C ====

Содержание индексной карты (.CUE):

REM GENRE "Psychedelic/Space Rock"REM DATE 2017REM DISCID 3E128206REM COMMENT "ExactAudioCopy v1.3"PERFORMER "Sleeping Pandora"TITLE "Quiet Pass"REM COMPOSER ""FILE "01 - Spherica.wav" WAVE TRACK 01 AUDIO TITLE "Spherica" PERFORMER "Sleeping Pandora" REM COMPOSER "" INDEX 01 00:00:00FILE "02 - Through the Maze.wav" WAVE TRACK 02 AUDIO TITLE "Through the Maze" PERFORMER "Sleeping Pandora" REM COMPOSER "" INDEX 01 00:00:00FILE "03 - Starsailor.wav" WAVE TRACK 03 AUDIO TITLE "Starsailor" PERFORMER "Sleeping Pandora" REM COMPOSER "" INDEX 01 00:00:00FILE "04 - Sunrizer.wav" WAVE TRACK 04 AUDIO TITLE "Sunrizer" PERFORMER "Sleeping Pandora" REM COMPOSER "" INDEX 01 00:00:00FILE "05 - Silvershaker.wav" WAVE TRACK 05 AUDIO TITLE "Silvershaker" PERFORMER "Sleeping Pandora" REM COMPOSER "" INDEX 01 00:00:00FILE "06 - Icarus.wav" WAVE TRACK 06 AUDIO TITLE "Icarus" PERFORMER "Sleeping Pandora" REM COMPOSER "" INDEX 01 00:00:00

Лог проверки качества

-----------------------
DON'T MODIFY THIS FILE
-----------------------
PERFORMER: auCDtect Task Manager, ver. 1.5.1RC4 build 1.5.1.5Copyright (c) 2008-2010 y-soft. All rights reservedhttp://y-soft.org
ANALYZER: auCDtect: CD records authenticity detector, version 0.8.2Copyright (c) 2004 Oleg Berngardt. All rights reserved.Copyright (c) 2004 Alexander Djourik. All rights reserved.
FILE: 06 - Icarus.flac Size: 75400381 Hash: B875D4CC0BCEFD7EB47AC4A64B8545CB Accuracy: -m8 Conclusion: CDDA 100% Signature: 6828AEA930AC5F5E35A5DC52AF7E92C38C9746EBFILE: 05 - Silvershaker.flac Size: 94629866 Hash: 4B76AD0C53ECFECD34D1CF0CA842D39F Accuracy: -m8 Conclusion: CDDA 100% Signature: 2CA633345AA3527FCBC5486975F957BCB31F9114FILE: 04 - Sunrizer.flac Size: 101333983 Hash: 725743409A59C8E13CD25790668A2D92 Accuracy: -m8 Conclusion: MPEG 95% Signature: 50CF0D187A258C2F442BBEF774683F5C83B8D9C2FILE: 03 - Starsailor.flac Size: 82906400 Hash: DD18B2B4C56421F0D7F89DA9376A4DDB Accuracy: -m8 Conclusion: CDDA 99% Signature: 02573E30AA22C39FDB02BF2AB2E7B6A32B3D5859FILE: 02 - Through the Maze.flac Size: 61928739 Hash: 9D150FE6D262FCA012B9E3F6CDAE700B Accuracy: -m8 Conclusion: MPEG 95% Signature: DF34BBFF24AA548DA67F173022BAB58CE9CE1039FILE: 01 - Spherica.flac Size: 71129859 Hash: 39974B435E3B6FE6499D98B9CCCEA8C7 Accuracy: -m8 Conclusion: CDDA 100% Signature: E24B13CE96B14FF198A80B4E31136E99864C1636

Скриншоты спектров

Лог DRM

foobar2000 1.3.16 / Замер динамического диапазона (DR) 1.1.1Дата отчёта: 2018-10-17 18:53:42
--------------------------------------------------------------------------------Анализ: Sleeping Pandora / Quiet Pass--------------------------------------------------------------------------------
DR Пики RMS Продолжительность трека--------------------------------------------------------------------------------DR5 0.00 дБ -6.08 дБ 12:40 01-SphericaDR6 0.00 дБ -8.05 дБ 10:35 02-Through the MazeDR6 0.00 дБ -7.46 дБ 12:05 03-StarsailorDR4 0.00 дБ -5.57 дБ 15:33 04-SunrizerDR6 0.00 дБ -8.12 дБ 15:55 05-SilvershakerDR6 0.00 дБ -7.78 дБ 12:10 06-Icarus--------------------------------------------------------------------------------
Количество треков: 6Реальные значения DR: DR6
Частота: 44100 ГцКаналов: 2Разрядность: 16Битрейт: 826 кбит/сКодек: FLAC================================================================================
-

Об альбоме (сборнике):

Debut album by experimental psychedelic spacerockers from Berlin. Spacelicious guitar sounds float through space, flooding the mind with beautiful colors. Hypnotic frequencies appear, forming shapes in multiple dimensions. A splendid trippy album![clear-spot.nl]

Состав

- Mathias Rosmann / guitars, synthesizers

2018 - From Above (Clostridium #CR-CD011)

Носитель: CD (Album, Limited Edition of 200 copies, Digipak)
Год издания оригинала: 2018
Страна - производитель диска: Germany
Издатель (лейбл): Clostridium Records
Номер по каталогу: CR-CD011
Продолжительность: 01:18:27
Источник (релизер): Моя коллекция, мой рип

Трэклист:
1. Shine (10:52)
2. Uberschall (12:18)
3. Danube Wave (11:12)
4. Cascades (12:07)
5. Going Back (9:12)
6. Space Lane (11:16)
7. Beach (11:27)

Лог создания рипа (17.10.2018)

Exact Audio Copy V1.3 from 2. September 2016
EAC extraction logfile from 17. October 2018, 18:23
Sleeping Pandora / From Above
Used drive : ATAPI iHAS122 F Adapter: 1 ID: 0
Read mode : SecureUtilize accurate stream : YesDefeat audio cache : YesMake use of C2 pointers : No
Read offset correction : 6Overread into Lead-In and Lead-Out : NoFill up missing offset samples with silence : YesDelete leading and trailing silent blocks : NoNull samples used in CRC calculations : YesUsed interface : Native Win32 interface for Win NT & 2000Gap handling : Appended to previous track
Used output format : User Defined EncoderSelected bitrate : 1024 kBit/sQuality : HighAdd ID3 tag : YesCommand line compressor : C:\Program Files (x86)\Exact Audio Copy\Flac\flac.exeAdditional command line options : -6 -V -T "ARTIST=%artist%" -T "TITLE=%title%" -T "ALBUM=%albumtitle%" -T "DATE=%year%" -T "TRACKNUMBER=%tracknr%" -T "GENRE=%genre%" -T "COMMENT=%comment%" %hascover%--picture="%coverfile%"%hascover% %source% -o %dest%
TOC of the extracted CD
Track | Start | Length | Start sector | End sector --------------------------------------------------------- 1 | 0:00.00 | 10:52.60 | 0 | 48959 2 | 10:52.60 | 12:18.35 | 48960 | 104344 3 | 23:11.20 | 11:12.00 | 104345 | 154744 4 | 34:23.20 | 12:07.21 | 154745 | 209290 5 | 46:30.41 | 9:12.34 | 209291 | 250724 6 | 55:43.00 | 11:16.43 | 250725 | 301467 7 | 66:59.43 | 11:27.66 | 301468 | 353058
Track 1
Filename E:\Music\olaf_alien\SLEEPING PANDORA\2018 - From Above\01 - Shine.wav
Pre-gap length 0:00:02.00
Peak level 96.4 % Extraction speed 6.4 X Track quality 100.0 % Test CRC 99D3BE76 Copy CRC 99D3BE76 Track not present in AccurateRip database Copy OK
Track 2
Filename E:\Music\olaf_alien\SLEEPING PANDORA\2018 - From Above\02 - Uberschall.wav
Peak level 97.8 % Extraction speed 7.8 X Track quality 100.0 % Test CRC A0502F69 Copy CRC A0502F69 Track not present in AccurateRip database Copy OK
Track 3
Filename E:\Music\olaf_alien\SLEEPING PANDORA\2018 - From Above\03 - Danube Wave.wav
Peak level 95.2 % Extraction speed 8.9 X Track quality 100.0 % Test CRC 5CE5AA15 Copy CRC 5CE5AA15 Track not present in AccurateRip database Copy OK
Track 4
Filename E:\Music\olaf_alien\SLEEPING PANDORA\2018 - From Above\04 - Cascades.wav
Peak level 95.2 % Extraction speed 9.9 X Track quality 100.0 % Test CRC E844F433 Copy CRC E844F433 Track not present in AccurateRip database Copy OK
Track 5
Filename E:\Music\olaf_alien\SLEEPING PANDORA\2018 - From Above\05 - Going Back.wav
Peak level 96.5 % Extraction speed 9.4 X Track quality 99.9 % Test CRC 563B85B9 Copy CRC 563B85B9 Track not present in AccurateRip database Copy OK
Track 6
Filename E:\Music\olaf_alien\SLEEPING PANDORA\2018 - From Above\06 - Space Lane.wav
Peak level 96.0 % Extraction speed 11.3 X Track quality 100.0 % Test CRC 78D45231 Copy CRC 78D45231 Track not present in AccurateRip database Copy OK
Track 7
Filename E:\Music\olaf_alien\SLEEPING PANDORA\2018 - From Above\07 - Beach.wav
Peak level 95.3 % Extraction speed 10.9 X Track quality 99.9 % Test CRC D3A5B194 Copy CRC D3A5B194 Track not present in AccurateRip database Copy OK
None of the tracks are present in the AccurateRip database
No errors occurred
End of status report
---- CUETools DB Plugin V2.1.6
[CTDB TOCID: E9ijJPfop3SEifuzqt1rI1PeIio-] foundSubmit result: E9ijJPfop3SEifuzqt1rI1PeIio- has been confirmedTrack | CTDB Status 1 | (2/2) Accurately ripped 2 | (2/2) Accurately ripped 3 | (2/2) Accurately ripped 4 | (2/2) Accurately ripped 5 | (2/2) Accurately ripped 6 | (2/2) Accurately ripped 7 | (2/2) Accurately ripped
==== Log checksum 361F9961EB7615F0B414B07D5F0C1B70A8C1785E3A232A064FC60CDB3229D6CC ====

Содержание индексной карты (.CUE):

REM GENRE "Psychedelic/Space Rock"REM DATE 2018REM DISCID 58126307REM COMMENT "ExactAudioCopy v1.3"PERFORMER "Sleeping Pandora"TITLE "From Above"REM COMPOSER ""FILE "01 - Shine.wav" WAVE TRACK 01 AUDIO TITLE "Shine" PERFORMER "Sleeping Pandora" REM COMPOSER "" INDEX 01 00:00:00FILE "02 - Uberschall.wav" WAVE TRACK 02 AUDIO TITLE "Uberschall" PERFORMER "Sleeping Pandora" REM COMPOSER "" INDEX 01 00:00:00FILE "03 - Danube Wave.wav" WAVE TRACK 03 AUDIO TITLE "Danube Wave" PERFORMER "Sleeping Pandora" REM COMPOSER "" INDEX 01 00:00:00FILE "04 - Cascades.wav" WAVE TRACK 04 AUDIO TITLE "Cascades" PERFORMER "Sleeping Pandora" REM COMPOSER "" INDEX 01 00:00:00FILE "05 - Going Back.wav" WAVE TRACK 05 AUDIO TITLE "Going Back" PERFORMER "Sleeping Pandora" REM COMPOSER "" INDEX 01 00:00:00FILE "06 - Space Lane.wav" WAVE TRACK 06 AUDIO TITLE "Space Lane" PERFORMER "Sleeping Pandora" REM COMPOSER "" INDEX 01 00:00:00FILE "07 - Beach.wav" WAVE TRACK 07 AUDIO TITLE "Beach" PERFORMER "Sleeping Pandora" REM COMPOSER "" INDEX 01 00:00:00

Лог проверки качества

-----------------------
DON'T MODIFY THIS FILE
-----------------------
PERFORMER: auCDtect Task Manager, ver. 1.5.1RC4 build 1.5.1.5Copyright (c) 2008-2010 y-soft. All rights reservedhttp://y-soft.org
ANALYZER: auCDtect: CD records authenticity detector, version 0.8.2Copyright (c) 2004 Oleg Berngardt. All rights reserved.Copyright (c) 2004 Alexander Djourik. All rights reserved.
FILE: 07 - Beach.flac Size: 72381463 Hash: 59EBD4E76EA1E96D9FBF39763CA151A6 Accuracy: -m8 Conclusion: CDDA 100% Signature: 4BA207A856DCB602DA208654087512C9D2E823ECFILE: 06 - Space Lane.flac Size: 71637423 Hash: DA241B18A3DA4DF5FF63269B517BDF6D Accuracy: -m8 Conclusion: MPEG 95% Signature: D023CCEFF0E085150BE249A4CFB69A81F86EA35BFILE: 05 - Going Back.flac Size: 41670992 Hash: 15DB3B013378E5D0D3F76088841EFD96 Accuracy: -m8 Conclusion: CDDA 100% Signature: 7690AB880628731E940BE16EB7CB56647D4839E6FILE: 04 - Cascades.flac Size: 61244795 Hash: D5C7C4548667F04879ADF7FC0113068A Accuracy: -m8 Conclusion: MPEG 95% Signature: 0B4067C9F24ADD3ED960134B50C43872F96F27E1FILE: 03 - Danube Wave.flac Size: 60655973 Hash: 9550B32309317142C4E41D47B7366B50 Accuracy: -m8 Conclusion: MPEG 95% Signature: A9A084C8F062EFC8039D9CA007EBB276BB29E616FILE: 02 - Uberschall.flac Size: 64667047 Hash: A79FA0D82D394B7E460AC9C9B1304278 Accuracy: -m8 Conclusion: MPEG 95% Signature: 8E3F0AB8D6BE4931786D3CE4A5E37FFA13F80511FILE: 01 - Shine.flac Size: 60930578 Hash: 1BCED62F706746941858BA640626BDFF Accuracy: -m8 Conclusion: MPEG 95% Signature: A5B43E92E5CE27C92C1EC0307EB26F0CBA8540D8

Скриншоты спектров

Лог DRM

foobar2000 1.3.16 / Замер динамического диапазона (DR) 1.1.1Дата отчёта: 2018-10-17 18:54:07
--------------------------------------------------------------------------------Анализ: Sleeping Pandora / From Above--------------------------------------------------------------------------------
DR Пики RMS Продолжительность трека--------------------------------------------------------------------------------DR6 -0.32 дБ -8.68 дБ 10:53 01-ShineDR8 -0.19 дБ -10.31 дБ 12:18 02-UberschallDR7 -0.43 дБ -9.06 дБ 11:12 03-Danube WaveDR8 -0.42 дБ -10.16 дБ 12:07 04-CascadesDR5 -0.31 дБ -7.99 дБ 9:12 05-Going BackDR5 -0.35 дБ -7.06 дБ 11:17 06-Space LaneDR7 -0.41 дБ -9.33 дБ 11:28 07-Beach--------------------------------------------------------------------------------
Количество треков: 7Реальные значения DR: DR7
Частота: 44100 ГцКаналов: 2Разрядность: 16Битрейт: 842 кбит/сКодек: FLAC================================================================================
-

Об альбоме (сборнике):

Mathias Rosmann creates in his solo project Sleeping Pandora majestic soundscapes with his spacelicious guitar playing. Let your mind be flooded with beautiful colors and hypnotic frequencies will appear in various shapes of multiple dimensions.
[sleepingpandora.bandcamp.com]

Состав

- Mathias Rosmann / guitars, synthesizers

2018 - Blue Sphere (WEB release)

Носитель: WEB (Album)
Год издания оригинала: 2018
Издатель (лейбл): WEB Release
Номер по каталогу: n/a
Продолжительность: 41:42
Источник (релизер): Bandcamp
Трэклист:
1. Electric Baby Dance (8:14)
2. Leonids (13:16)
3. Between Earth And Moon (9:55)
4. White Sea Cruise (10:15)

Лог проверки качества

-----------------------
DON'T MODIFY THIS FILE
-----------------------
PERFORMER: auCDtect Task Manager, ver. 1.5.1RC4 build 1.5.1.5Copyright (c) 2008-2010 y-soft. All rights reservedhttp://y-soft.org
ANALYZER: auCDtect: CD records authenticity detector, version 0.8.2Copyright (c) 2004 Oleg Berngardt. All rights reserved.Copyright (c) 2004 Alexander Djourik. All rights reserved.
FILE: Sleeping Pandora - Blue Sphere - 04 White Sea Cruise.flac Size: 65122374 Hash: E27FCAEBF5A166DA6C3B8D6C30A662B1 Accuracy: -m8 Conclusion: CDDA 94% Signature: D3266E713E9C11AFBF7D1EAA503267F9AC353D59FILE: Sleeping Pandora - Blue Sphere - 03 Between Earth And Moon.flac Size: 42804585 Hash: 878FD7B9D0014E907EFAECBB1454B51A Accuracy: -m8 Conclusion: CDDA 100% Signature: 0A6ACBD0829353DE820AFAC67F64466774621D2DFILE: Sleeping Pandora - Blue Sphere - 02 Leonids.flac Size: 81616732 Hash: D6572EE87005CCAB3165EC98095DE1FE Accuracy: -m8 Conclusion: CDDA 100% Signature: 7DD3326711FCC4804F6DCAFFED62AADBF42E2563FILE: Sleeping Pandora - Blue Sphere - 01 Electric Baby Dance.flac Size: 41931877 Hash: 71C1BB6FCAF2DBBA02285C976D40C5FF Accuracy: -m8 Conclusion: CDDA 100% Signature: 9604EF637B08B8131DB143ECEF0774EEB7A4B3CE

Лог DRM

foobar2000 1.3.16 / Замер динамического диапазона (DR) 1.1.1Дата отчёта: 2018-09-27 11:58:04
--------------------------------------------------------------------------------Анализ: Sleeping Pandora / Blue Sphere--------------------------------------------------------------------------------
DR Пики RMS Продолжительность трека--------------------------------------------------------------------------------DR7 -0.07 дБ -8.74 дБ 8:14 01-Electric Baby DanceDR6 -0.39 дБ -8.12 дБ 13:17 02-LeonidsDR7 0.00 дБ -9.96 дБ 9:56 03-Between Earth And MoonDR5 0.00 дБ -6.49 дБ 10:16 04-White Sea Cruise--------------------------------------------------------------------------------
Количество треков: 4Реальные значения DR: DR6
Частота: 44100 ГцКаналов: 2Разрядность: 16Битрейт: 845 кбит/сКодек: FLAC================================================================================
-

Состав

- Mathias Rosmann / guitars, synthesizers



[galltoto.com]_t_5668961.torrent
Торрент: Зарегистрирован ·  [ 2019-01-06 19:01 ] ·  cb3db7f0e30d40916db72899e5eef9039228188a

15 KB

Статус: проверено
Скачан: 0 раз
Размер: 1.15 GB
Оценка: 
(Голосов: 0)
Сказали спасибо: 0  Спасибо
Похожие темы
[Профиль]    [ЛС]
Показать сообщения:    
Ответить на тему

Текущее время: Сегодня 19:08

Часовой пояс: GMT + 7



Вы не можете начинать темы
Вы не можете отвечать на сообщения
Вы не можете редактировать свои сообщения
Вы не можете удалять свои сообщения
Вы не можете голосовать в опросах
Вы не можете прикреплять файлы к сообщениям
Вы можете скачивать файлы


RuPaul's Drag Race | Bailarina | Michael Louis Albo