(Crossover Prog) [WEB] The Kaos Theory - Static Voyager - 2011, FLAC (tracks), lossless

Ответить на тему
Статистика раздачи [Обновить пиров]
Размер:  430 MB   |    Зарегистрирован:  12 дней   |    Скачан:  0 раз

Полного источника не было: Никогда

 
   
 
 
 
Автор Сообщение

galltoto.com

Создавать темы 06-Янв-2019 19:41

[Цитировать]

The Kaos Theory / Static Voyager
Жанр: Crossover Prog
Носитель: WEB
Год издания: 2011
Страна исполнителя (группы): Spain
Аудиокодек: FLAC (*.flac)
Тип рипа: tracks
Битрейт аудио: lossless
Продолжительность: 01:11:58
Источник (релизер): Bandcamp
Наличие сканов в содержимом раздачи: нет

01. Time To Change [00:05:55]
02. Cold Wind [00:07:17]
03. Free Page [00:00:41]
04. Immortality (Peeling Grapes) [00:09:12]
05. Alone [00:03:57]
06. Samthings [00:09:28]
07. 1789 [00:06:38]
08. Where The Hatred Grows [00:06:47]
09. Binary 010010 [00:00:35]
10. Widespread [00:08:18]
11. Moonlight [00:06:07]
12. Echoes Of Creation [00:06:57]
Released March 2, 2011

Состав

Daniel Márquez - Acoustic Guitars, Keys, Backing Vocals
Jesús Espinosa - Electric Guitars, Backing Vocals
Cristian San Emeterio - Lead Vocals, Bass, Electric Guitars
Jordi Mayoral - Drums

Лог проверки качества

-----------------------
DON'T MODIFY THIS FILE
-----------------------
PERFORMER: auCDtect Task Manager, ver. 1.6.0 RC1 build 1.6.0.1Copyright (c) 2008-2010 y-soft. All rights reservedhttp://y-soft.org
ANALYZER: auCDtect: CD records authenticity detector, version 0.8.2Copyright (c) 2004 Oleg Berngardt. All rights reserved.Copyright (c) 2004 Alexander Djourik. All rights reserved.
FILE: 12. Echoes Of Creation.flac Size: 34029930 Hash: 93EC0A5656192C6DE3D1073D71E165C1 Accuracy: -m0 Conclusion: CDDA 100% Signature: 9127EA8230325B5B223865463FC8B946FD4030F8FILE: 11. Moonlight.flac Size: 39606218 Hash: 786016D7D95F507BD95218FBAF6DF66C Accuracy: -m0 Conclusion: CDDA 100% Signature: E6F7DDE59218A5BABC7A2969B736ACC10C536E8FFILE: 10. Widespread.flac Size: 52777497 Hash: CD8EA4A3E54F1E24CD0B8576D381ABD0 Accuracy: -m0 Conclusion: CDDA 100% Signature: F962100A0128912464C44E301A62295BAA1A764CFILE: 09. Binary 010010.flac Size: 2104466 Hash: 2BF0F17EFAED14E866A510508C842CA6 Accuracy: -m0 Conclusion: CDDA 100% Signature: F1BFA7E990A6315D1E982B5FA57970AAD7E1B1FAFILE: 08. Where The Hatred Grows.flac Size: 44953495 Hash: 37AF2D416E7E7F6E6CD59A3FEB65DBFF Accuracy: -m0 Conclusion: CDDA 100% Signature: 6D6E1901433F326BAC0C8069B5D469E190FF7810FILE: 07. 1789.flac Size: 40816590 Hash: C3C958B0C5A3923ED30E435DE04542CC Accuracy: -m0 Conclusion: CDDA 100% Signature: 5685A82FE0EB26C8C907D0DAE30D2137BDC95703FILE: 06. Samthings.flac Size: 61698353 Hash: 54E18A4891043F4A506353B6B50F1016 Accuracy: -m0 Conclusion: CDDA 100% Signature: DFEBDC8F17B0A989DE1E9399D69EA91F9AAA80FFFILE: 05. Alone.flac Size: 23624870 Hash: E48F802C1EFFFF32CE39C6AF54FBDC09 Accuracy: -m0 Conclusion: CDDA 100% Signature: 9661E6C1299B2F6F5007C7DBF8098AA4820012E5FILE: 04. Immortality (Peeling Grapes).flac Size: 61469918 Hash: 9F878ED366DBD357EEC3CD5E6FDF2A47 Accuracy: -m0 Conclusion: CDDA 100% Signature: 84507BCFDBFB3DBF144349BA2BC93361B8CAF91DFILE: 03. Free Page.flac Size: 3265624 Hash: 6574C3CA6B59BF73C4601B7FA8D0EA8C Accuracy: -m0 Conclusion: CDDA 100% Signature: A425F34F0818D4FD15C1103834218FF1136DE66AFILE: 02. Cold Wind.flac Size: 47184660 Hash: 178505452A132A9386D92431E9B1D6DD Accuracy: -m0 Conclusion: CDDA 100% Signature: B6A2E75C83BE4A4DE022755AFF80319F8E08DD84FILE: 01. Time To Change.flac Size: 39085183 Hash: 8278052D3C9143B75E7E93EA95265CDE Accuracy: -m0 Conclusion: CDDA 100% Signature: BDE539729FB408B95DD94687746B69C16A2E3B77

DRM log

foobar2000 1.3.12 / Dynamic Range Meter 1.1.1log date: 2019-01-04 00:58:14
--------------------------------------------------------------------------------Analyzed: The Kaos Theory / Static Voyager--------------------------------------------------------------------------------
DR Peak RMS Duration Track--------------------------------------------------------------------------------DR10 0.00 dB -12.49 dB 5:55 01-Time To ChangeDR9 0.00 dB -11.70 dB 7:18 02-Cold WindDR12 -6.66 dB -23.33 dB 0:41 03-Free PageDR9 0.00 dB -10.49 dB 9:13 04-Immortality (Peeling Grapes)DR12 0.00 dB -14.83 dB 3:58 05-AloneDR12 0.00 dB -14.94 dB 9:28 06-SamthingsDR13 -0.12 dB -15.79 dB 6:38 07-1789DR12 0.00 dB -13.80 dB 6:48 08-Where The Hatred GrowsDR15 -4.39 dB -23.09 dB 0:36 09-Binary 010010DR12 0.00 dB -15.07 dB 8:19 10-WidespreadDR10 0.00 dB -12.83 dB 6:08 11-MoonlightDR11 -0.43 dB -16.89 dB 6:58 12-Echoes Of Creation--------------------------------------------------------------------------------
Number of tracks: 12Official DR value: DR12
Samplerate: 44100 HzChannels: 2Bits per sample: 16Bitrate: 650 kbpsCodec: FLAC================================================================================


[galltoto.com]_t_5669151.torrent
Торрент: Зарегистрирован ·  [ 2019-01-06 19:01 ] ·  8c6cc9aaed36f3cb1700e7970529f9873d49c09c

18 KB

Статус: проверено
Скачан: 0 раз
Размер: 430 MB
Оценка: 
(Голосов: 0)
Сказали спасибо: 0  Спасибо
Похожие темы
[Профиль]    [ЛС]
Показать сообщения:    
Ответить на тему

Текущее время: Сегодня 20:59

Часовой пояс: GMT + 7



Вы не можете начинать темы
Вы не можете отвечать на сообщения
Вы не можете редактировать свои сообщения
Вы не можете удалять свои сообщения
Вы не можете голосовать в опросах
Вы не можете прикреплять файлы к сообщениям
Вы можете скачивать файлы


Solar Ultrasonic Animal Repellent Humane Outdoor Dog Cat Bird Repeller Animal Pest Reject With Power.. | The iDOLM@STER SideM: Wak | Transfer Stampa Maglia T-Shirt Cotone Bianco Nero Looney Tunes Will Coyote Willy