(Psych Folk/60\'s/Prog/Canterbury) [WEB] Cobalt Chapel - Cobalt Chapel - 2017, FLAC (tracks), lossless

Ответить на тему
Статистика раздачи [Обновить пиров]
Размер:  356 MB   |    Зарегистрирован:  12 дней   |    Скачан:  0 раз

Полного источника не было: Никогда

 
   
 
 
 
Автор Сообщение

galltoto.com

Создавать темы 06-Янв-2019 19:41

[Цитировать]

Cobalt Chapel / Cobalt Chapel
Жанр: Psych Folk/60's/Prog/Canterbury
Носитель: WEB
Год издания: 2017
Страна исполнителя (группы): UK
Аудиокодек: FLAC (*.flac)
Тип рипа: tracks
Битрейт аудио: lossless
Продолжительность: 54:57
Источник (релизер): Bandcamp
Наличие сканов в содержимом раздачи: нет

01. We Come Willingly [00:06:09]
02. Fruit Falls From The Apple Tree [00:05:00]
03. Ava Gardner [00:02:19]
04. Who Are The Strange [00:05:49]
05. Crestone Ridge [00:01:01]
06. The Lamb [00:02:44]
07. Black Eyes [00:04:50]
08. Singing Camberwell Beauty [00:04:01]
09. Maze [00:01:11]
10. Two [00:03:36]
11. Horratia [00:05:03]
12. Positive Negative [00:05:18]
13. Three Paths Charm [00:07:51]
Released February 21, 2017

Состав

Cecilia Fage: Vocals and Choral Arrangements
Jarrod Gosling: Organs, Effects, Drums and Percussion

Лог проверки качества

-----------------------
DON'T MODIFY THIS FILE
-----------------------
PERFORMER: auCDtect Task Manager, ver. 1.6.0 RC1 build 1.6.0.1Copyright (c) 2008-2010 y-soft. All rights reservedhttp://y-soft.org
ANALYZER: auCDtect: CD records authenticity detector, version 0.8.2Copyright (c) 2004 Oleg Berngardt. All rights reserved.Copyright (c) 2004 Alexander Djourik. All rights reserved.
FILE: Cobalt Chapel - Cobalt Chapel - 13 Three Paths Charm.flac Size: 49813903 Hash: 7E2BFE24BBAB5C3F51AD221AE0319661 Accuracy: -m0 Conclusion: CDDA 100% Signature: 9A56B5A3EA30898292D0114F15407973BD45D012FILE: Cobalt Chapel - Cobalt Chapel - 12 Positive Negative.flac Size: 40218444 Hash: 6B108D28DCDF3AEA4F8AD377E50A064A Accuracy: -m0 Conclusion: CDDA 100% Signature: 31E9294E2E57525B4E2DE246FF29536087E37AC8FILE: Cobalt Chapel - Cobalt Chapel - 11 Horratia.flac Size: 33629942 Hash: 2693CC3B2136AD747B2F985D8749CD6E Accuracy: -m0 Conclusion: CDDA 100% Signature: B65B9ED69FDB7CC2081B016A59504882D1C74140FILE: Cobalt Chapel - Cobalt Chapel - 10 Two.flac Size: 25186167 Hash: 1080F63DE48A0F0F1A920F648289AAFA Accuracy: -m0 Conclusion: CDDA 100% Signature: E2A8A513FE18F4CA68FFE79DE04AD2D9265B9400FILE: Cobalt Chapel - Cobalt Chapel - 09 Maze.flac Size: 7433100 Hash: 922059C001685789BBCDB1AC1B7418D8 Accuracy: -m0 Conclusion: CDDA 100% Signature: 321B32C8F3D4837CAA5A3EFCBDF782414C234FE8FILE: Cobalt Chapel - Cobalt Chapel - 08 Singing Camberwell Beauty.flac Size: 27681256 Hash: 59040BA6EBB77D270CDBEE067459C21E Accuracy: -m0 Conclusion: CDDA 100% Signature: 2FBB8F7D52CF41A9DA34128E415A777D80B8E1D4FILE: Cobalt Chapel - Cobalt Chapel - 07 Black Eyes.flac Size: 35786559 Hash: 789A96893318A887F8DCC5E702AB5C6B Accuracy: -m0 Conclusion: CDDA 100% Signature: 36441A03AFCB97FAE6852CAB0D468D3980451A7AFILE: Cobalt Chapel - Cobalt Chapel - 06 The Lamb.flac Size: 15243178 Hash: 29FB3FD7B3AD9ACD89EBA91C6F567247 Accuracy: -m0 Conclusion: CDDA 99% Signature: 64B40B97F56F63E4F2444F7C5F58D0B9664733BBFILE: Cobalt Chapel - Cobalt Chapel - 05 Crestone Ridge.flac Size: 5119673 Hash: 8705C64608142E13837A8C4AA83BE7F2 Accuracy: -m0 Conclusion: CDDA 94% Signature: F10F6C6855DE3616EC5C5F6BFA700FCD32C310F0FILE: Cobalt Chapel - Cobalt Chapel - 04 Who Are The Strange.flac Size: 38451440 Hash: 2A22B0A50E367A3F52CDD80EE50BB5E2 Accuracy: -m0 Conclusion: CDDA 100% Signature: DCB976CEA50AFFCF61BF31A1E26F6CE1BF4CE5A0FILE: Cobalt Chapel - Cobalt Chapel - 03 Ava Gardner.flac Size: 14851482 Hash: CF56593B6AFF96EEBD8D3B8B7643F366 Accuracy: -m0 Conclusion: CDDA 100% Signature: D6D4D4EF3B1850720061D1074F84257C179C5642FILE: Cobalt Chapel - Cobalt Chapel - 02 Fruit Falls From The Apple Tree.flac Size: 34396575 Hash: A215337EDA7D763BB1BB026655BC55FA Accuracy: -m0 Conclusion: CDDA 99% Signature: 2D6103A56E7F1A567D35726FD5E086F46240134EFILE: Cobalt Chapel - Cobalt Chapel - 01 We Come Willingly.flac Size: 42661047 Hash: 22E585FD4F6EA4375ED0503CE8540DEA Accuracy: -m0 Conclusion: CDDA 100% Signature: 50671E232900709C59514D81EBF9C790C5682283

DRM log

foobar2000 1.3.12 / Dynamic Range Meter 1.1.1log date: 2019-01-04 07:14:45
--------------------------------------------------------------------------------Analyzed: Cobalt Chapel / Cobalt Chapel--------------------------------------------------------------------------------
DR Peak RMS Duration Track--------------------------------------------------------------------------------DR6 -0.04 dB -7.83 dB 6:09 01-We Come WillinglyDR6 -0.04 dB -7.65 dB 5:01 02-Fruit Falls From The Apple TreeDR5 -0.04 dB -7.09 dB 2:20 03-Ava GardnerDR6 -0.04 dB -9.18 dB 5:49 04-Who Are The StrangeDR10 -1.35 dB -14.28 dB 1:02 05-Crestone RidgeDR12 -1.60 dB -16.34 dB 2:44 06-The LambDR6 -0.04 dB -8.24 dB 4:50 07-Black EyesDR6 -0.04 dB -8.09 dB 4:01 08-Singing Camberwell BeautyDR8 -0.04 dB -10.61 dB 1:11 09-MazeDR8 -0.04 dB -10.01 dB 3:37 10-TwoDR6 -0.04 dB -9.03 dB 5:03 11-HorratiaDR5 -0.04 dB -7.07 dB 5:19 12-Positive NegativeDR6 -0.04 dB -9.05 dB 7:52 13-Three Paths Charm--------------------------------------------------------------------------------
Number of tracks: 13Official DR value: DR7
Samplerate: 44100 HzChannels: 2Bits per sample: 16Bitrate: 842 kbpsCodec: FLAC================================================================================


[galltoto.com]_t_5669159.torrent
Торрент: Зарегистрирован ·  [ 2019-01-06 19:01 ] ·  d9bc82a34b4ef2ee81f5680dc0453f758867ed68

15 KB

Статус: проверено
Скачан: 0 раз
Размер: 356 MB
Оценка: 
(Голосов: 0)
Сказали спасибо: 0  Спасибо
Похожие темы
[Профиль]    [ЛС]
Показать сообщения:    
Ответить на тему

Текущее время: Сегодня 20:58

Часовой пояс: GMT + 7



Вы не можете начинать темы
Вы не можете отвечать на сообщения
Вы не можете редактировать свои сообщения
Вы не можете удалять свои сообщения
Вы не можете голосовать в опросах
Вы не можете прикреплять файлы к сообщениям
Вы можете скачивать файлы


Ragissez ! | Una pupa in libreria Serie TV Streaming Download | Women Waist Trainer Cincher Tummy Girdle Belt Body Shaper Black Corset Trimmer )