(RIO/Avant-Prog) [CD] Samla Mammas Manna / Zamla Mammaz Manna / Gregory Allan FitzPatrick - Samla-Zamla Box (8CD) (1971-1980), - 2008, FLAC (image+.cue), lossless

Ответить на тему
Статистика раздачи [Обновить пиров]
Размер:  2.45 GB   |    Зарегистрирован:  12 дней   |    Скачан:  0 раз

Полного источника не было: Никогда

 
   
 
 
 
Автор Сообщение

galltoto.com

Создавать темы 06-Янв-2019 19:41

[Цитировать]

Samla Mammas Manna / Zamla Mammaz Manna / Gregory Allan FitzPatrick - Samla-Zamla Box
Жанр: RIO/Avant-Prog
Носитель: CD
Год выхода диска: 2008
Страна: Sweden
Производитель диска: Arcangelo / ARC-3017
Аудио кодек: FLAC
Тип рипа: image+.cue
Битрейт аудио: lossless
Наличие сканов в содержимом раздачи:
Доп. информация: http://www.discogs.com/Zamla-Mammaz-Manna-Samla-Zamla-Box/release/11669231

CD1: Samla Mammas Manna - Samla Mammas Manna (1971)

Продолжительность: 46:02
Трэклист:
01. Circus Apparatha (6:02)
02. Pausus (0:18)
03. Vidgat Läge (Broadened Condition) (3:15)
04. Släde Till Satori (Slayride To Satori) (4:17)
05. Schekina (2:51)
06. Uvertyr Till Häst (Overture To A Kind Horse) (2:55)
07. Flickan I Skogen (The Girl In The Woods) (2:20)
08. Manna Jamma (5:53)
09. At-one-ment (4:20)
10. Skrik Från Embassy-live (Shouts From Embassy) (2:29)
11. Fittravisan (0:59)
12. E`pop Tai (4:09)
+ + + + + + + + + + +
13. Cirkus Impala (3:39)
14. Lawrence In Sahara (2:01)
Состав:
- Lasse Hollmer / organ, piano, vocals
- Lars Krantz / bass
- Hasse Bruniusson / drums, vocals
- Henrik "Bebben" Öberg / congas, percussion

Отчёт EAC

Exact Audio Copy V0.99 prebeta 5 from 4. May 2009
EAC extraction logfile from 20. March 2012, 18:08
Samla Mammas Manna / Samla Mammas Manna
Used drive : Optiarc DVD RW AD-7200S Adapter: 1 ID: 0
Read mode : SecureUtilize accurate stream : YesDefeat audio cache : YesMake use of C2 pointers : No
Read offset correction : 48Overread into Lead-In and Lead-Out : NoFill up missing offset samples with silence : YesDelete leading and trailing silent blocks : NoNull samples used in CRC calculations : YesUsed interface : Installed external ASPI interface
Used output format : Internal WAV RoutinesSample format : 44.100 Hz; 16 Bit; Stereo
TOC of the extracted CD
Track | Start | Length | Start sector | End sector --------------------------------------------------------- 1 | 0:00.00 | 6:04.19 | 0 | 27318 2 | 6:04.19 | 0:20.37 | 27319 | 28855 3 | 6:24.56 | 3:19.43 | 28856 | 43823 4 | 9:44.24 | 4:17.21 | 43824 | 63119 5 | 14:01.45 | 2:52.42 | 63120 | 76061 6 | 16:54.12 | 2:55.15 | 76062 | 89201 7 | 19:49.27 | 2:22.35 | 89202 | 99886 8 | 22:11.62 | 6:07.48 | 99887 | 127459 9 | 28:19.35 | 4:20.15 | 127460 | 146974 10 | 32:39.50 | 2:29.39 | 146975 | 158188 11 | 35:09.14 | 0:58.64 | 158189 | 162602 12 | 36:08.03 | 4:12.43 | 162603 | 181545 13 | 40:20.46 | 3:39.53 | 181546 | 198023 14 | 44:00.24 | 2:01.70 | 198024 | 207168
Range status and errors
Selected range
Filename C:\Program Files\Lossless\Samla (Zamla) Mammas Manna - Samla-Zamla Box (2008)\CD 1 - Samla Mammas Manna (1971)\Samla Mammas Manna - Samla Mammas Manna.wav
Peak level 99.8 % Range quality 99.9 % Copy CRC 7AF9C6E7 Copy OK
No errors occurred
AccurateRip summary
Track 1 accurately ripped (confidence 3) [A33150A4]Track 2 accurately ripped (confidence 3) [84E72CB9]Track 3 accurately ripped (confidence 3) [FEB7C879]Track 4 accurately ripped (confidence 3) [5BF1943F]Track 5 accurately ripped (confidence 3) [D3755E32]Track 6 accurately ripped (confidence 3) [1057AF5A]Track 7 accurately ripped (confidence 3) [90A18AE1]Track 8 accurately ripped (confidence 3) [471A7CD8]Track 9 accurately ripped (confidence 3) [062C40B7]Track 10 accurately ripped (confidence 3) [1531144C]Track 11 accurately ripped (confidence 3) [DA943741]Track 12 accurately ripped (confidence 3) [8FC245D4]Track 13 cannot be verified as accurate (confidence 3) [1D9936DB], AccurateRip returned [6D029002]Track 14 cannot be verified as accurate (confidence 3) [DBC1848B], AccurateRip returned [84714789]
11 track(s) accurately ripped 3 track(s) could not be verified as accurate
Some tracks could not be verified as accurate
End of status report

.cue

REM GENRE Avant-ProgREM DATE 1971REM DISCID A30ACA0EREM COMMENT "ExactAudioCopy v0.99pb5"CATALOG 4988044330092PERFORMER "Samla Mammas Manna"TITLE "Samla Mammas Manna"FILE "Samla Mammas Manna - Samla Mammas Manna.flac" WAVE TRACK 01 AUDIO TITLE "Circus Apparatha" PERFORMER "Samla Mammas Manna" INDEX 01 00:00:00 TRACK 02 AUDIO TITLE "Pausus" PERFORMER "Samla Mammas Manna" INDEX 01 06:04:19 TRACK 03 AUDIO TITLE "Broadened Condition" PERFORMER "Samla Mammas Manna" INDEX 01 06:24:56 TRACK 04 AUDIO TITLE "Slayride to Satori" PERFORMER "Samla Mammas Manna" INDEX 01 09:44:24 TRACK 05 AUDIO TITLE "Schenkina" PERFORMER "Samla Mammas Manna" INDEX 01 14:01:45 TRACK 06 AUDIO TITLE "Overture to a Kind Horse" PERFORMER "Samla Mammas Manna" INDEX 01 16:54:12 TRACK 07 AUDIO TITLE "The Girl in the Woods" PERFORMER "Samla Mammas Manna" INDEX 01 19:49:27 TRACK 08 AUDIO TITLE "Manna Jamma" PERFORMER "Samla Mammas Manna" INDEX 01 22:11:62 TRACK 09 AUDIO TITLE "At-One-Ment" PERFORMER "Samla Mammas Manna" INDEX 01 28:19:35 TRACK 10 AUDIO TITLE "Shouts From Embassy" PERFORMER "Samla Mammas Manna" INDEX 01 32:39:50 TRACK 11 AUDIO TITLE "Fittravisan" PERFORMER "Samla Mammas Manna" INDEX 01 35:09:14 TRACK 12 AUDIO TITLE "E' Pop Tai" PERFORMER "Samla Mammas Manna" INDEX 01 36:08:03 TRACK 13 AUDIO TITLE "Cirkus Impala" PERFORMER "Samla Mammas Manna" INDEX 01 40:20:46 TRACK 14 AUDIO TITLE "Lawrence in Sahara" PERFORMER "Samla Mammas Manna" INDEX 01 44:00:24

CueTools

[CUETools log; Date: 2019.01.04. 17:04:58; Version: 2.1.6][CTDB TOCID: 4WQ0MyQc.4OkzrGCF.IjF5q2WmQ-] found.Track | CTDB Status 1 | (3/3) Accurately ripped 2 | (3/3) Accurately ripped 3 | (3/3) Accurately ripped 4 | (3/3) Accurately ripped 5 | (3/3) Accurately ripped 6 | (3/3) Accurately ripped 7 | (3/3) Accurately ripped 8 | (3/3) Accurately ripped 9 | (3/3) Accurately ripped 10 | (3/3) Accurately ripped 11 | (3/3) Accurately ripped 12 | (3/3) Accurately ripped 13 | (1/3) Accurately ripped 14 | (1/3) Accurately ripped[AccurateRip ID: 001891fc-0104513f-a30aca0e] found.Track [ CRC | V2 ] Status 01 [a33150a4|bec95f0e] (4+3/7) Accurately ripped 02 [84e72cb9|d266ddbb] (4+3/7) Accurately ripped 03 [feb7c879|7ad82120] (4+3/7) Accurately ripped 04 [5bf1943f|485e193d] (4+3/7) Accurately ripped 05 [d3755e32|4866e59b] (3+3/6) Accurately ripped 06 [1057af5a|032337dc] (4+3/7) Accurately ripped 07 [90a18ae1|1f0a4a0a] (4+3/7) Accurately ripped 08 [471a7cd8|dbac297e] (4+3/7) Accurately ripped 09 [062c40b7|7f3689b4] (4+3/7) Accurately ripped 10 [1531144c|2946028b] (4+3/7) Accurately ripped 11 [da943741|cd612eb0] (4+3/7) Accurately ripped 12 [8fc245d4|8ae0d25f] (4+3/7) Accurately ripped 13 [1d9936db|4517a83c] (0+0/5) No match 14 [dbc1848b|c1cfe05e] (0+0/5) No matchOffsetted by -6: 01 [ec88faf1] (0/7) No match 02 [d0b34402] (0/7) No match 03 [750d302f] (0/7) No match 04 [76ec7347] (0/7) No match 05 [dc3c1e4d] (0/6) No match 06 [9595711b] (0/7) No match 07 [52eddce1] (0/7) No match 08 [49035851] (0/7) No match 09 [c39d7b9b] (0/7) No match 10 [72a4b3e3] (0/7) No match 11 [33fba7cc] (0/7) No match 12 [cb512ed7] (0/7) No match 13 [27c34f5d] (0/5) No match 14 [6f89c9a1] (0/5) No match (V2 was not tested)
Track Peak [ CRC32 ] [W/O NULL] [ LOG ] -- 99,8 [7AF9C6E7] [CAEAC538] CRC32 01 99,8 [55DF3086] [B42BCF46] 02 57,4 [3AA32410] [8AA74457] 03 99,8 [3163155F] [431636CC] 04 99,7 [AA887D06] [5090EB7C] 05 99,8 [35656985] [21048088] 06 99,8 [8B81B988] [A4F4B1B1] 07 99,8 [1FE03551] [AB17EF9A] 08 99,7 [CC7ABB14] [1D4681E8] 09 99,7 [7B829584] [1AB893BF] 10 99,8 [A6239AF5] [5A0D7C66] 11 99,7 [29F793E8] [A1BFEBE9] 12 95,1 [DFD55CB2] [02B13F77] 13 99,7 [E6FC17D4] [401066D6] 14 99,7 [632D491C] [69D201C2]

CD2: Samla Mammas Manna - Måltid (1973)

Продолжительность: 61:35
Трэклист:
01. Dundrets Fröjder (10:46)
02. Oförutsedd Förlossning (3:14)
03. Den återupplivade Låten (6:01)
04. Folkvisa I Morse (2:11)
05. Syster System (2:30)
06. Tärningen (3:38)
07. Svackorpoängen (3:16)
08. Minareten (8:23)
09. Værelseds Tilbud (2:30)
+ + + + + + + + + + +
10. Minareten II (4:42)
11. Probably The Probably (4:01)
12. Samlajass 72/ Lyckliga Titanic 74 (2:59)
13. Kårlek Tralala 73/ Drumfailure Opera 75 (7:20)
Состав:
- Coste Apetrea / guitar, vocals
- Lasse Hollmer / acoustic & electric pianos, Mellotron (?), vocals
- Lars Krantz / bass, vocals
- Hasse Bruniusson / drums, percussion, vocals
With:
- Henrik Öberg / congas (11)

Отчёт EAC

Exact Audio Copy V0.99 prebeta 5 from 4. May 2009
EAC extraction logfile from 21. March 2012, 17:18
Samla Mammas Manna / Maltid
Used drive : Optiarc DVD RW AD-7200S Adapter: 1 ID: 0
Read mode : SecureUtilize accurate stream : YesDefeat audio cache : YesMake use of C2 pointers : No
Read offset correction : 48Overread into Lead-In and Lead-Out : NoFill up missing offset samples with silence : YesDelete leading and trailing silent blocks : NoNull samples used in CRC calculations : YesUsed interface : Installed external ASPI interface
Used output format : Internal WAV RoutinesSample format : 44.100 Hz; 16 Bit; Stereo
TOC of the extracted CD
Track | Start | Length | Start sector | End sector --------------------------------------------------------- 1 | 0:00.00 | 10:46.37 | 0 | 48486 2 | 10:46.37 | 3:14.50 | 48487 | 63086 3 | 14:01.12 | 6:01.10 | 63087 | 90171 4 | 20:02.22 | 2:11.07 | 90172 | 100003 5 | 22:13.29 | 2:30.12 | 100004 | 111265 6 | 24:43.41 | 3:38.64 | 111266 | 127679 7 | 28:22.30 | 3:16.04 | 127680 | 142383 8 | 31:38.34 | 8:23.08 | 142384 | 180116 9 | 40:01.42 | 2:30.28 | 180117 | 191394 10 | 42:31.70 | 4:42.62 | 191395 | 212606 11 | 47:14.57 | 4:01.14 | 212607 | 230695 12 | 51:15.71 | 2:59.62 | 230696 | 244182 13 | 54:15.58 | 7:20.14 | 244183 | 277196
Range status and errors
Selected range
Filename C:\Program Files\Lossless\Samla (Zamla) Mammas Manna - Samla-Zamla Box (2008)\CD 2 - Maltid (1973)\Samla Mammas Manna - Maltid.wav
Peak level 98.8 % Range quality 100.0 % Copy CRC 59DAA8E4 Copy OK
No errors occurred
AccurateRip summary
Track 1 accurately ripped (confidence 2) [48EB23D0]Track 2 accurately ripped (confidence 2) [187ECD79]Track 3 accurately ripped (confidence 2) [AF16DE5B]Track 4 accurately ripped (confidence 2) [E29877EC]Track 5 accurately ripped (confidence 2) [40B3A591]Track 6 accurately ripped (confidence 2) [CF29D2CD]Track 7 accurately ripped (confidence 2) [F7208144]Track 8 accurately ripped (confidence 2) [CB871B32]Track 9 accurately ripped (confidence 2) [34A0720E]Track 10 accurately ripped (confidence 2) [FFAD174F]Track 11 accurately ripped (confidence 2) [496917D6]Track 12 accurately ripped (confidence 2) [B43F5E12]Track 13 accurately ripped (confidence 2) [30FF2477]
All tracks accurately ripped
End of status report

.cue

REM GENRE Avant-ProgREM DATE 1973REM DISCID AB0E6F0DREM COMMENT "ExactAudioCopy v0.99pb5"CATALOG 4988044330108PERFORMER "Samla Mammas Manna"TITLE "Maltid"FILE "Samla Mammas Manna - Maltid.flac" WAVE TRACK 01 AUDIO TITLE "Dundrets frojder" PERFORMER "Samla Mammas Manna" INDEX 01 00:00:00 TRACK 02 AUDIO TITLE "Ofoerutsedd Foerlossning" PERFORMER "Samla Mammas Manna" INDEX 01 10:46:37 TRACK 03 AUDIO TITLE "Den aterupplivada laten" PERFORMER "Samla Mammas Manna" INDEX 01 14:01:12 TRACK 04 AUDIO TITLE "Folkvisa i morse" PERFORMER "Samla Mammas Manna" INDEX 01 20:02:22 TRACK 05 AUDIO TITLE "Syster system" PERFORMER "Samla Mammas Manna" INDEX 01 22:13:29 TRACK 06 AUDIO TITLE "Tarningen" PERFORMER "Samla Mammas Manna" INDEX 01 24:43:41 TRACK 07 AUDIO TITLE "Svackorpoangen" PERFORMER "Samla Mammas Manna" INDEX 01 28:22:30 TRACK 08 AUDIO TITLE "Minareten" PERFORMER "Samla Mammas Manna" INDEX 01 31:38:34 TRACK 09 AUDIO TITLE "Vaerelsedstilbud" PERFORMER "Samla Mammas Manna" INDEX 01 40:01:42 TRACK 10 AUDIO TITLE "Minareten II" PERFORMER "Samla Mammas Manna" INDEX 01 42:31:70 TRACK 11 AUDIO TITLE "Probably the probably" PERFORMER "Samla Mammas Manna" INDEX 01 47:14:57 TRACK 12 AUDIO TITLE "Samlajass - Luckliga Titanic" PERFORMER "Samla Mammas Manna" INDEX 01 51:15:71 TRACK 13 AUDIO TITLE "Karlek Tralala - Drumfailure Opera" PERFORMER "Samla Mammas Manna" INDEX 01 54:15:58

CueTools

[CUETools log; Date: 2019.01.04. 17:04:00; Version: 2.1.6][CTDB TOCID: 0jAgtTXYLhG9twfN30Xq8pDB9vQ-] found.Track | CTDB Status 1 | (10/10) Accurately ripped 2 | (10/10) Accurately ripped 3 | (10/10) Accurately ripped 4 | (10/10) Accurately ripped 5 | (10/10) Accurately ripped 6 | (10/10) Accurately ripped 7 | (10/10) Accurately ripped 8 | (10/10) Accurately ripped 9 | (10/10) Accurately ripped 10 | (10/10) Accurately ripped 11 | (10/10) Accurately ripped 12 | (10/10) Accurately ripped 13 | (10/10) Accurately ripped[AccurateRip ID: 001ecfcb-012a39dd-ab0e6f0d] found.Track [ CRC | V2 ] Status 01 [48eb23d0|413a0b09] (2+4/6) Accurately ripped 02 [187ecd79|0242f03c] (2+4/6) Accurately ripped 03 [af16de5b|0ee26b6d] (2+4/6) Accurately ripped 04 [e29877ec|2f410980] (2+4/6) Accurately ripped 05 [40b3a591|f32280ae] (2+4/6) Accurately ripped 06 [cf29d2cd|f74368ee] (2+4/6) Accurately ripped 07 [f7208144|5b9a315c] (2+4/6) Accurately ripped 08 [cb871b32|22615a79] (2+4/6) Accurately ripped 09 [34a0720e|df178585] (2+4/6) Accurately ripped 10 [ffad174f|31728c0e] (2+4/6) Accurately ripped 11 [496917d6|5bed4952] (2+4/6) Accurately ripped 12 [b43f5e12|56d11d4f] (2+4/6) Accurately ripped 13 [30ff2477|f88b1ee4] (2+4/6) Accurately ripped
Track Peak [ CRC32 ] [W/O NULL] [ LOG ] -- 98,8 [59DAA8E4] [10F314E0] CRC32 01 98,8 [180A4F37] [ADC16D82] 02 98,8 [498D8FE8] [1676DC50] 03 98,8 [4CAC9D29] [85F285EA] 04 98,8 [1491E23A] [E2B5C135] 05 98,8 [283157D9] [7F95C980] 06 98,8 [BBDE6AB4] [0BE9BF5E] 07 98,8 [EA39B17F] [963FAA2E] 08 98,8 [691561D0] [1DEC7312] 09 98,8 [7CF3D50A] [42C10609] 10 98,8 [5FF5B055] [F2BF64E0] 11 98,8 [AEA4B93A] [32BE4227] 12 97,9 [298EAA3D] [4004CDBF] 13 97,9 [6296A6AB] [D44D1F22]

CD3: Samla Mammas Manna - Klossa Knapitatet (1974)

Продолжительность: 52:44
Трэклист:
01. Ingenting (Nothing) (2:09)
02. Liten Dialektik (Small Dialectics) (10:10)
03. Sucken (The Sigh) (1:14)
04. Långt Ner I Ett Kannihål (Way Down A Rabbithole) (4:13)
05. Kom Lite Närmare (Come A Little Closer) (1:30)
06. Musmjölkningmaskinen (The Mousemilkingmachine) (6:36)
07. Influenser (Influences) (6:58)
08. Klossa Knapitatet (1:23)
09. Ramlösa Kvällar (Frameless Nights) (5:30)
+ + + + + + + + + + + + +
10. Knapitat Impro (6:02)
11. Joosan,Die Neugierige Musikanten (6:52)
Состав:
- Coste Apetrea / guitar, vocals
- Lasse Hollmer / piano, accordion, vocals (yodelling?)
- Lars Krantz / bass, vocals
- Hasse Bruniusson / drums, percussion, vocals
With:
- Brynn Settels / accordion (8)

Отчёт EAC

Exact Audio Copy V0.99 prebeta 5 from 4. May 2009
EAC extraction logfile from 21. March 2012, 20:53
Samla Mammas Manna / Klossa Knapitatet
Used drive : Optiarc DVD RW AD-7200S Adapter: 1 ID: 0
Read mode : SecureUtilize accurate stream : YesDefeat audio cache : YesMake use of C2 pointers : No
Read offset correction : 48Overread into Lead-In and Lead-Out : NoFill up missing offset samples with silence : YesDelete leading and trailing silent blocks : NoNull samples used in CRC calculations : YesUsed interface : Installed external ASPI interface
Used output format : Internal WAV RoutinesSample format : 44.100 Hz; 16 Bit; Stereo
TOC of the extracted CD
Track | Start | Length | Start sector | End sector --------------------------------------------------------- 1 | 0:00.00 | 2:10.23 | 0 | 9772 2 | 2:10.23 | 10:08.30 | 9773 | 55402 3 | 12:18.53 | 1:14.00 | 55403 | 60952 4 | 13:32.53 | 4:15.27 | 60953 | 80104 5 | 17:48.05 | 1:29.15 | 80105 | 86794 6 | 19:17.20 | 6:36.25 | 86795 | 116519 7 | 25:53.45 | 7:00.33 | 116520 | 148052 8 | 32:54.03 | 1:22.62 | 148053 | 154264 9 | 34:16.65 | 5:32.08 | 154265 | 179172 10 | 39:48.73 | 6:02.62 | 179173 | 206384 11 | 45:51.60 | 6:52.44 | 206385 | 237328
Range status and errors
Selected range
Filename C:\Program Files\Lossless\Samla (Zamla) Mammas Manna - Samla-Zamla Box (2008)\CD 3 - Klossa Knapitatet (1974)\Samla Mammas Manna - Klossa Knapitatet.wav
Peak level 99.8 % Range quality 100.0 % Copy CRC EE061FDB Copy OK
No errors occurred
AccurateRip summary
Track 1 accurately ripped (confidence 4) [993E21AD]Track 2 accurately ripped (confidence 4) [47AC45CC]Track 3 accurately ripped (confidence 4) [0C87FFE1]Track 4 accurately ripped (confidence 4) [402B0C38]Track 5 accurately ripped (confidence 4) [77F5F6DC]Track 6 accurately ripped (confidence 4) [785BCA7F]Track 7 accurately ripped (confidence 4) [D4FC2186]Track 8 accurately ripped (confidence 4) [0BFAC725]Track 9 accurately ripped (confidence 4) [2DBC2774]Track 10 accurately ripped (confidence 4) [402D7A2D]Track 11 accurately ripped (confidence 4) [769B4AE2]
All tracks accurately ripped
End of status report

.cue

REM GENRE Avant-ProgREM DATE 1974REM DISCID 8D0C5C0BREM COMMENT "ExactAudioCopy v0.99pb5"CATALOG 4988044330115PERFORMER "Samla Mammas Manna"TITLE "Klossa Knapitatet"FILE "Samla Mammas Manna - Klossa Knapitatet.flac" WAVE TRACK 01 AUDIO TITLE "Ingenting" PERFORMER "Samla Mammas Manna" INDEX 01 00:00:00 TRACK 02 AUDIO TITLE "Liten Dialektik" PERFORMER "Samla Mammas Manna" INDEX 01 02:10:23 TRACK 03 AUDIO TITLE "Sucken" PERFORMER "Samla Mammas Manna" INDEX 01 12:18:53 TRACK 04 AUDIO TITLE "Lang Ner I Ett Kaninhal" PERFORMER "Samla Mammas Manna" INDEX 01 13:32:53 TRACK 05 AUDIO TITLE "Kom Lite Narware" PERFORMER "Samla Mammas Manna" INDEX 01 17:48:05 TRACK 06 AUDIO TITLE "Musmjolkningsmaskinen" PERFORMER "Samla Mammas Manna" INDEX 01 19:17:20 TRACK 07 AUDIO TITLE "Influenser" PERFORMER "Samla Mammas Manna" INDEX 01 25:53:45 TRACK 08 AUDIO TITLE "Klossa Knapitatet" PERFORMER "Samla Mammas Manna" INDEX 01 32:54:03 TRACK 09 AUDIO TITLE "Ramlosa Kvallar" PERFORMER "Samla Mammas Manna" INDEX 01 34:16:65 TRACK 10 AUDIO TITLE "Knapitat Impro (Bonus Track)" PERFORMER "Samla Mammas Manna" INDEX 01 39:48:73 TRACK 11 AUDIO TITLE "Joosan/Die Neugierige Musikanten (Bonus Track)" PERFORMER "Samla Mammas Manna" INDEX 01 45:51:60

CueTools

[CUETools log; Date: 2019.01.04. 17:02:46; Version: 2.1.6][CTDB TOCID: AxgXLqVLggQ7imK1mZzdKDaxx6A-] found.Track | CTDB Status 1 | (6/6) Accurately ripped 2 | (6/6) Accurately ripped 3 | (6/6) Accurately ripped 4 | (6/6) Accurately ripped 5 | (6/6) Accurately ripped 6 | (6/6) Accurately ripped 7 | (6/6) Accurately ripped 8 | (6/6) Accurately ripped 9 | (6/6) Accurately ripped 10 | (6/6) Accurately ripped 11 | (6/6) Accurately ripped[AccurateRip ID: 00145de2-00b1c0c9-8d0c5c0b] found.Track [ CRC | V2 ] Status 01 [993e21ad|d7d34ef2] (4+4/8) Accurately ripped 02 [47ac45cc|f4861ae0] (4+4/8) Accurately ripped 03 [0c87ffe1|6695151f] (4+4/8) Accurately ripped 04 [402b0c38|8c82e387] (4+4/8) Accurately ripped 05 [77f5f6dc|1d11918d] (4+4/8) Accurately ripped 06 [785bca7f|6bdcb62c] (4+4/8) Accurately ripped 07 [d4fc2186|3152977b] (4+4/8) Accurately ripped 08 [0bfac725|f0409947] (4+4/8) Accurately ripped 09 [2dbc2774|845c8f0d] (4+4/8) Accurately ripped 10 [402d7a2d|d6496b25] (4+4/8) Accurately ripped 11 [769b4ae2|1f9f8de3] (4+4/8) Accurately ripped
Track Peak [ CRC32 ] [W/O NULL] [ LOG ] -- 99,8 [EE061FDB] [83B9B483] CRC32 01 99,8 [D93660A1] [00A63877] 02 99,8 [12DCB3C6] [D88AE712] 03 99,8 [070B4472] [9469DEF3] 04 99,8 [357684B9] [E87164DC] 05 99,8 [4C05C645] [C7DC90AF] 06 99,8 [A50A0268] [FD59DF3C] 07 99,8 [C6A49981] [C6635024] 08 99,8 [E8F52536] [42841411] 09 99,8 [5A4CF25C] [3C503E84] 10 97,8 [B4011901] [3438D45C] 11 97,8 [CD131200] [34E04174]

CD4: Zamla Mammaz Manna - Schlagerns Mystik (1978)

Продолжительность: 37:32
Трэклист:
01. At Ragunda (1:37)
02. Seasonsong (3:48)
03. Proffesion is the Amateur's Glue (2:20)
04. Buttonless (2:15)
05. Not Margareta (3:47)
06. Little Karin (4:15)
07. Asphaltsong (1:52)
08. Joosan Lost (0:25)
09. The Fate (17:00)
Состав:
- Eino Haapala / electric & acoustic guitars, vibes, vocals
- Lars Hollmer / electric piano, grand piano, Hohner organ, Korg synth, accordion, vocals
- Lars Krantz / bass, double bass, acoustic guitar, vocals
- Hasse Bruniusson / drums, glockensiel, xylophone, vibes vocals

Отчёт EAC

Exact Audio Copy V0.99 prebeta 5 from 4. May 2009
EAC extraction logfile from 20. March 2012, 18:48
Zamla Mammaz Manna / Schlagerns Mystik
Used drive : Optiarc DVD RW AD-7200S Adapter: 1 ID: 0
Read mode : SecureUtilize accurate stream : YesDefeat audio cache : YesMake use of C2 pointers : No
Read offset correction : 48Overread into Lead-In and Lead-Out : NoFill up missing offset samples with silence : YesDelete leading and trailing silent blocks : NoNull samples used in CRC calculations : YesUsed interface : Installed external ASPI interface
Used output format : Internal WAV RoutinesSample format : 44.100 Hz; 16 Bit; Stereo
TOC of the extracted CD
Track | Start | Length | Start sector | End sector --------------------------------------------------------- 1 | 0:00.00 | 1:38.63 | 0 | 7412 2 | 1:38.63 | 3:46.00 | 7413 | 24362 3 | 5:24.63 | 2:19.58 | 24363 | 34845 4 | 7:44.46 | 2:18.40 | 34846 | 45235 5 | 10:03.11 | 3:49.37 | 45236 | 62447 6 | 13:52.48 | 4:17.40 | 62448 | 81762 7 | 18:10.13 | 1:53.50 | 81763 | 90287 8 | 20:03.63 | 0:31.68 | 90288 | 92680 9 | 20:35.56 | 16:56.43 | 92681 | 168923
Range status and errors
Selected range
Filename C:\Program Files\Lossless\Samla (Zamla) Mammas Manna - Samla-Zamla Box (2008)\CD 4 - Schlagerns Mystik (1978)\Zamla Mammaz Manna - Schlagerns Mystik.wav
Peak level 99.1 % Range quality 100.0 % Copy CRC 184CA327 Copy OK
No errors occurred
AccurateRip summary
Track 1 cannot be verified as accurate (confidence 3) [52FDF033], AccurateRip returned [86DFE5E5]Track 2 cannot be verified as accurate (confidence 3) [6E99EFC8], AccurateRip returned [BBE505A1]Track 3 cannot be verified as accurate (confidence 3) [1C7B828E], AccurateRip returned [1BB76A40]Track 4 cannot be verified as accurate (confidence 3) [58643EB1], AccurateRip returned [7E81345A]Track 5 cannot be verified as accurate (confidence 3) [177A34B6], AccurateRip returned [30B7BBB4]Track 6 cannot be verified as accurate (confidence 3) [083C78D0], AccurateRip returned [27BA50A0]Track 7 cannot be verified as accurate (confidence 4) [DE7F9E6F], AccurateRip returned [D715E43A]Track 8 cannot be verified as accurate (confidence 4) [E916028E], AccurateRip returned [FD639B37]Track 9 cannot be verified as accurate (confidence 4) [966C07A7], AccurateRip returned [F97B43CB]
No tracks could be verified as accurateYou may have a different pressing from the one(s) in the database
End of status report

.cue

REM GENRE Avant-ProgREM DATE 1978REM DISCID 5908CC09REM COMMENT "ExactAudioCopy v0.99pb5"CATALOG 4988044330122PERFORMER "Zamla Mammaz Manna"TITLE "Schlagerns Mystik"FILE "Zamla Mammaz Manna - Schlagerns Mystik.flac" WAVE TRACK 01 AUDIO TITLE "At Ragunda" PERFORMER "Zamla Mammaz Manna" INDEX 01 00:00:00 TRACK 02 AUDIO TITLE "Seasonsong" PERFORMER "Zamla Mammaz Manna" INDEX 01 01:38:63 TRACK 03 AUDIO TITLE "Proffesion Is The Amateur's Glue" PERFORMER "Zamla Mammaz Manna" INDEX 01 05:24:63 TRACK 04 AUDIO TITLE "Buttonless" PERFORMER "Zamla Mammaz Manna" INDEX 01 07:44:46 TRACK 05 AUDIO TITLE "Not Margareta" PERFORMER "Zamla Mammaz Manna" INDEX 01 10:03:11 TRACK 06 AUDIO TITLE "Little Karin" PERFORMER "Zamla Mammaz Manna" INDEX 01 13:52:48 TRACK 07 AUDIO TITLE "Asphaltsong" PERFORMER "Zamla Mammaz Manna" INDEX 01 18:10:13 TRACK 08 AUDIO TITLE "Joosan Lost" PERFORMER "Zamla Mammaz Manna" INDEX 01 20:03:63 TRACK 09 AUDIO TITLE "The Fate" PERFORMER "Zamla Mammaz Manna" INDEX 01 20:35:56

CueTools

[CUETools log; Date: 2019.01.04. 17:01:23; Version: 2.1.6][CTDB TOCID: kB8EguHF8BPHQDiOk8uvDaPu3xA-] found.Track | CTDB Status 1 | (5/5) Accurately ripped 2 | (5/5) Accurately ripped 3 | (5/5) Accurately ripped 4 | (5/5) Accurately ripped 5 | (5/5) Accurately ripped 6 | (1/5) Accurately ripped 7 | (5/5) Accurately ripped 8 | (5/5) Accurately ripped 9 | (5/5) Accurately ripped[AccurateRip ID: 000946da-0046e526-5908cc09] found.Track [ CRC | V2 ] Status 01 [52fdf033|e38b43b2] (0+2/5) Accurately ripped 02 [6e99efc8|bee0b78e] (0+2/5) Accurately ripped 03 [1c7b828e|053f6ecc] (0+2/5) Accurately ripped 04 [58643eb1|10ed057d] (0+2/5) Accurately ripped 05 [177a34b6|7bff3173] (0+2/5) Accurately ripped 06 [083c78d0|d6d18d49] (0+2/5) Accurately ripped 07 [de7f9e6f|d715e43a] (0+5/5) Accurately ripped 08 [e916028e|fd639b37] (0+5/5) Accurately ripped 09 [966c07a7|f97b43cb] (0+5/5) Accurately rippedOffsetted by -6: 01 [f718b63b] (0/5) No match (V2 was not tested) 02 [69d95028] (0/5) No match (V2 was not tested) 03 [340dfecb] (0/5) No match (V2 was not tested) 04 [c70f68a7] (0/5) No match (V2 was not tested) 05 [cc318f8d] (0/5) No match (V2 was not tested) 06 [aa8c52c4] (0/5) No match (V2 was not tested) 07 [f4d9adb1] (0/5) No match 08 [0c8523a8] (0/5) No match 09 [6f64e9d2] (0/5) No match
Track Peak [ CRC32 ] [W/O NULL] [ LOG ] -- 99,1 [184CA327] [0B240CD5] CRC32 01 99,1 [0711CBA0] [BEE43915] 02 99,1 [44375E82] [420BB423] 03 99,1 [F0B42516] [0E7B244E] 04 99,1 [3221F531] [C3C674CA] 05 99,1 [453152CB] [B7F1D0FC] 06 99,1 [482B8C63] [821DC63A] 07 99,1 [F108B292] [DC68C384] 08 72,3 [98CBC9A9] [B9430A30] 09 99,1 [5D8C277A] [AF71F89D]

CD5: Zamla Mammaz Manna - För Äldre Nybegynnare (1977)

Продолжительность: 52:44
Трэклист:
01. Watchmaker 1 (3:42)
02. Watchmaker 2 (2:31)
03. The Funktrap (2:50)
04. Short Inheritance (1:56)
05. The Modern (6:19)
06. Temporal You Are (2:37)
07. Harness In Memoriam (12:30)
08. To The Oval Meter (3:47)
09. Do You Think Like Me? (5:14)
10. Fatemiddle / Dreams Freeform Liten Karen / Rainbox Embryo (11:13)
Состав:
- Eino Haapala / guitar, vocals
- Lars Hollmer / electric piano, grand piano, Hohner & Farfisa organs, Korg synth, vocals
- Lars Krantz / bass, trumpet
- Hasse Bruniusson / drums, glockensiel, xylophone, vocals

Отчёт EAC

Exact Audio Copy V0.99 prebeta 5 from 4. May 2009
EAC extraction logfile from 21. March 2012, 16:03
Samla Mammas Manna / For Aldre Nybegynnare
Used drive : Optiarc DVD RW AD-7200S Adapter: 1 ID: 0
Read mode : SecureUtilize accurate stream : YesDefeat audio cache : YesMake use of C2 pointers : No
Read offset correction : 48Overread into Lead-In and Lead-Out : NoFill up missing offset samples with silence : YesDelete leading and trailing silent blocks : NoNull samples used in CRC calculations : YesUsed interface : Installed external ASPI interface
Used output format : Internal WAV RoutinesSample format : 44.100 Hz; 16 Bit; Stereo
TOC of the extracted CD
Track | Start | Length | Start sector | End sector --------------------------------------------------------- 1 | 0:00.00 | 3:41.74 | 0 | 16648 2 | 3:41.74 | 2:31.10 | 16649 | 27983 3 | 6:13.09 | 2:49.45 | 27984 | 40703 4 | 9:02.54 | 1:55.50 | 40704 | 49378 5 | 10:58.29 | 6:18.43 | 49379 | 77771 6 | 17:16.72 | 2:36.42 | 77772 | 89513 7 | 19:53.39 | 12:30.20 | 89514 | 145783 8 | 32:23.59 | 3:47.28 | 145784 | 162836 9 | 36:11.12 | 5:20.07 | 162837 | 186843 10 | 41:31.19 | 11:13.48 | 186844 | 237366
Range status and errors
Selected range
Filename C:\Program Files\Lossless\Samla (Zamla) Mammas Manna - Samla-Zamla Box (2008)\CD 5 - For Aldre Nybegynnare (1978)\Samla Mammas Manna - For Aldre Nybegynnare.wav
Peak level 99.1 % Range quality 99.9 % Copy CRC 77B74A0D Copy OK
No errors occurred
AccurateRip summary
Track 1 cannot be verified as accurate (confidence 2) [0E52535C], AccurateRip returned [BD2E9D3C]Track 2 cannot be verified as accurate (confidence 2) [77E46BFB], AccurateRip returned [1B5FAD35]Track 3 cannot be verified as accurate (confidence 2) [135D63FB], AccurateRip returned [F4456E07]Track 4 cannot be verified as accurate (confidence 2) [CB7A8CC9], AccurateRip returned [A85F3C76]Track 5 cannot be verified as accurate (confidence 2) [584B8408], AccurateRip returned [A328000B]Track 6 cannot be verified as accurate (confidence 2) [21C51A16], AccurateRip returned [1F744C2D]Track 7 cannot be verified as accurate (confidence 2) [31AAA963], AccurateRip returned [B6916E91]Track 8 cannot be verified as accurate (confidence 2) [22C82CF6], AccurateRip returned [BAB87772]Track 9 cannot be verified as accurate (confidence 2) [F1F66497], AccurateRip returned [2121CF5D]Track 10 cannot be verified as accurate (confidence 2) [6FC8CEC2], AccurateRip returned [A13ABEAA]
No tracks could be verified as accurateYou may have a different pressing from the one(s) in the database
End of status report

.cue

REM GENRE Avant-ProgREM DATE 1977REM DISCID 7F0C5C0AREM COMMENT "ExactAudioCopy v0.99pb5"CATALOG 4988044330122PERFORMER "Zamla Mammaz Manna"TITLE "For Aldre Nybegynnare"FILE "Zamla Mammaz Manna - For Aldre Nybegynnare.flac" WAVE TRACK 01 AUDIO TITLE "Urmakare 1" PERFORMER "Zamla Mammaz Manna" INDEX 01 00:00:00 TRACK 02 AUDIO TITLE "Urmakare 2" PERFORMER "Zamla Mammaz Manna" INDEX 01 03:41:74 TRACK 03 AUDIO TITLE "Funkfallan" PERFORMER "Zamla Mammaz Manna" INDEX 01 06:13:09 TRACK 04 AUDIO TITLE "Kort pabra" PERFORMER "Zamla Mammaz Manna" INDEX 01 09:02:54 TRACK 05 AUDIO TITLE "Moderna" PERFORMER "Zamla Mammaz Manna" INDEX 01 10:58:29 TRACK 06 AUDIO TITLE "Timlig ar du" PERFORMER "Zamla Mammaz Manna" INDEX 01 17:16:72 TRACK 07 AUDIO TITLE "Seldon in memoriam" PERFORMER "Zamla Mammaz Manna" INDEX 01 19:53:39 TRACK 08 AUDIO TITLE "Till ovala metern" PERFORMER "Zamla Mammaz Manna" INDEX 01 32:23:59 TRACK 09 AUDIO TITLE "Tycker du som jag?" PERFORMER "Zamla Mammaz Manna" INDEX 01 36:11:12 TRACK 10 AUDIO TITLE "Fatemiddle / Dreams Freeform Liten Karen / Rainbox Embryo" PERFORMER "Zamla Mammaz Manna" INDEX 01 41:31:19

CueTools

[CUETools log; Date: 2019.01.04. 16:59:58; Version: 2.1.6][CTDB TOCID: dZEncXSM7s8fUTZi_IwFiOa9QY0-] found.Track | CTDB Status 1 | (3/3) Accurately ripped 2 | (3/3) Accurately ripped 3 | (3/3) Accurately ripped 4 | (3/3) Accurately ripped 5 | (3/3) Accurately ripped 6 | (3/3) Accurately ripped 7 | (3/3) Accurately ripped 8 | (3/3) Accurately ripped 9 | (3/3) Accurately ripped 10 | (1/3) Accurately ripped[AccurateRip ID: 000fca52-00853b52-7f0c5c0a] found.Track [ CRC | V2 ] Status 01 [0e52535c|bd2e9d3c] (0+3/3) Accurately ripped 02 [77e46bfb|1b5fad35] (0+3/3) Accurately ripped 03 [135d63fb|f4456e07] (0+3/3) Accurately ripped 04 [cb7a8cc9|a85f3c76] (0+3/3) Accurately ripped 05 [584b8408|a328000b] (0+3/3) Accurately ripped 06 [21c51a16|1f744c2d] (0+3/3) Accurately ripped 07 [31aaa963|b6916e91] (0+3/3) Accurately ripped 08 [22c82cf6|bab87772] (0+3/3) Accurately ripped 09 [f1f66497|2121cf5d] (0+3/3) Accurately ripped 10 [6fc8cec2|04dc5b07] (0+0/2) No match
Track Peak [ CRC32 ] [W/O NULL] [ LOG ] -- 99,1 [77B74A0D] [DD53A9C8] CRC32 01 99,1 [155F1CD1] [D8C73329] 02 99,1 [82EAD923] [52038298] 03 99,1 [6358068E] [A175EDE7] 04 92,2 [D4713EDD] [FBE2B55A] 05 99,1 [91C836E8] [E94654BD] 06 99,1 [710CCDDF] [1A0AB67A] 07 99,1 [40CCB272] [715A46AF] 08 99,1 [CCEAAD64] [A48CD37D] 09 99,1 [2DF2F2E1] [34ADB725] 10 99,1 [2AB7B0D0] [2260F028]

CD6: Zamla Mammaz Manna - Familjesprickor (1980)

Продолжительность: 49:53
Трэклист:
01. Five Single Combats (5:52)
02. Ventilation Calculation (5:05)
03. The Forge (5:04)
04. The Thrall (Live in Strassbourg and Charleville, France) (5:05)
05. The Panting Short Story (3:52)
06. Pappa (with right of veto) (Live in Sülfeld, Germany) (4:27)
07. The Farmhand (7:33)
08. Kernel in Short and Long Castling (5:40)
+ + + + + + + + + + + + + +
09. Klossa Intro Ikarien (Live Reims 80) (6:39)
Состав:
- Eino Haapala / guitar, vocals
- Lars Hollmer / keyboards, accordion, vocals
- Lars Krantz / bass, vocals
- Vilgot Hansson / drums, percussion
With:
- Hans Bruniusson / drums & marimba (6)

Отчёт EAC

Exact Audio Copy V0.99 prebeta 5 from 4. May 2009
EAC extraction logfile from 21. March 2012, 22:23
Zamla Mammaz Manna / Familjesprickor
Used drive : Optiarc DVD RW AD-7200S Adapter: 1 ID: 0
Read mode : SecureUtilize accurate stream : YesDefeat audio cache : YesMake use of C2 pointers : No
Read offset correction : 48Overread into Lead-In and Lead-Out : NoFill up missing offset samples with silence : YesDelete leading and trailing silent blocks : NoNull samples used in CRC calculations : YesUsed interface : Installed external ASPI interface
Used output format : Internal WAV RoutinesSample format : 44.100 Hz; 16 Bit; Stereo
TOC of the extracted CD
Track | Start | Length | Start sector | End sector --------------------------------------------------------- 1 | 0:00.00 | 5:54.06 | 0 | 26555 2 | 5:54.06 | 5:06.65 | 26556 | 49570 3 | 11:00.71 | 5:11.58 | 49571 | 72953 4 | 16:12.54 | 5:08.62 | 72954 | 96115 5 | 21:21.41 | 3:53.35 | 96116 | 113625 6 | 25:15.01 | 4:29.38 | 113626 | 133838 7 | 29:44.39 | 7:36.07 | 133839 | 168045 8 | 37:20.46 | 5:53.13 | 168046 | 194533 9 | 43:13.59 | 6:39.64 | 194534 | 224522
Range status and errors
Selected range
Filename C:\Program Files\Lossless\Samla (Zamla) Mammas Manna - Samla-Zamla Box (2008)\CD 6 - Familjesprickor (1980)\Zamla Mammaz Manna - Familjesprickor.wav
Peak level 99.8 % Range quality 100.0 % Copy CRC 0EE7D50D Copy OK
No errors occurred
AccurateRip summary
Track 1 cannot be verified as accurate (confidence 3) [436AE2B9], AccurateRip returned [E2D500F7]Track 2 cannot be verified as accurate (confidence 3) [9EF3C8CB], AccurateRip returned [37C5DB1A]Track 3 cannot be verified as accurate (confidence 3) [9DA688E1], AccurateRip returned [4BDB5943]Track 4 cannot be verified as accurate (confidence 3) [C9F3E5AC], AccurateRip returned [58E8AA78]Track 5 cannot be verified as accurate (confidence 3) [579B161E], AccurateRip returned [7BBB091A]Track 6 cannot be verified as accurate (confidence 3) [58983F24], AccurateRip returned [BDBAD678]Track 7 cannot be verified as accurate (confidence 3) [E3CBA106], AccurateRip returned [0ED26543]Track 8 accurately ripped (confidence 2) [7A29782A]Track 9 accurately ripped (confidence 2) [DFD58C28]
2 track(s) accurately ripped 7 track(s) could not be verified as accurate
Some tracks could not be verified as accurate
End of status report

.cue

REM GENRE Avant-ProgREM DATE 1980REM DISCID 830BB109REM COMMENT "ExactAudioCopy v0.99pb5"CATALOG 4988044330146PERFORMER "Zamla Mammaz Manna"TITLE "Familjesprickor"FILE "Zamla Mammaz Manna - Familjesprickor.flac" WAVE TRACK 01 AUDIO TITLE "Fem Holmgangar" PERFORMER "Zamla Mammaz Manna" INDEX 01 00:00:00 TRACK 02 AUDIO TITLE "Ventilationskalkyl" PERFORMER "Zamla Mammaz Manna" INDEX 01 05:54:06 TRACK 03 AUDIO TITLE "Smedjan" PERFORMER "Zamla Mammaz Manna" INDEX 01 11:00:71 TRACK 04 AUDIO TITLE "Tralen" PERFORMER "Zamla Mammaz Manna" INDEX 01 16:12:54 TRACK 05 AUDIO TITLE "Den Flamtande Novellen" PERFORMER "Zamla Mammaz Manna" INDEX 01 21:21:41 TRACK 06 AUDIO TITLE "Pappa Med Vetoratt" PERFORMER "Zamla Mammaz Manna" INDEX 01 25:15:01 TRACK 07 AUDIO TITLE "Drangen" PERFORMER "Zamla Mammaz Manna" INDEX 01 29:44:39 TRACK 08 AUDIO TITLE "Karna I Kort Och Lang Rockad" PERFORMER "Zamla Mammaz Manna" INDEX 01 37:20:46 TRACK 09 AUDIO TITLE "Klossa Intro Ikarien, Live Reims 80" PERFORMER "Zamla Mammaz Manna" INDEX 01 43:13:59

CueTools

[CUETools log; Date: 2019.01.04. 16:58:40; Version: 2.1.6][CTDB TOCID: 9yGF_KhViunXa4Vuj2JBF3iNwXA-] found.Track | CTDB Status 1 | (6/6) Accurately ripped 2 | (6/6) Accurately ripped 3 | (6/6) Accurately ripped 4 | (6/6) Accurately ripped 5 | (6/6) Accurately ripped 6 | (6/6) Accurately ripped 7 | (6/6) Accurately ripped 8 | (6/6) Accurately ripped 9 | (6/6) Accurately ripped[AccurateRip ID: 001079d5-00790d47-830bb109] found.Track [ CRC | V2 ] Status 01 [436ae2b9|e2d500f7] (2+3/5) Accurately ripped 02 [9ef3c8cb|37c5db1a] (2+3/5) Accurately ripped 03 [9da688e1|4bdb5943] (2+3/5) Accurately ripped 04 [c9f3e5ac|58e8aa78] (2+3/5) Accurately ripped 05 [579b161e|7bbb091a] (2+3/5) Accurately ripped 06 [58983f24|bdbad678] (2+3/5) Accurately ripped 07 [e3cba106|0ed26543] (2+3/5) Accurately ripped 08 [7a29782a|69fe3d3d] (3+3/6) Accurately ripped 09 [dfd58c28|536d5c3b] (3+3/6) Accurately ripped
Track Peak [ CRC32 ] [W/O NULL] [ LOG ] -- 99,8 [0EE7D50D] [3D131434] CRC32 01 99,8 [E230EAD3] [51F3CCB5] 02 99,8 [41CFC0F8] [35D8FB20] 03 99,8 [1376ECAF] [9E866218] 04 99,8 [32F628BC] [D344D96C] 05 99,8 [ED9848CD] [F0ED5D0C] 06 99,8 [9C5597A8] [2539756A] 07 99,8 [D29D03B4] [434DB59D] 08 99,8 [1D0A4887] [C8A4F99B] 09 97,8 [BC61A33C] [37826184]

CD7: Samla Mammas Manna - Snorungarnas Symfoni (1976)

Продолжительность: 34:06
Трэклист:
01. Första satsen (11:46)
02. Andra satsen (5:39)
03. Tredje satsen (7:46)
04. Fjärde satsen (8:43)
Состав:
- Coste Apetrea / guitars, balalaika
- Lasse Hollmer / piano, keyboards
- Lars Krantz / bass
- Hasse Bruniusson / drums, percussion
With:
- Gregory Allan Fitzpatrick / composer & arranger
- Ärtan Wallander / sax
- Kalle Eriksson / trumpet

Отчёт EAC

Exact Audio Copy V0.99 prebeta 5 from 4. May 2009
EAC extraction logfile from 21. March 2012, 14:30
Samla Mammas Manna / Snorungarnas Symfoni
Used drive : Optiarc DVD RW AD-7200S Adapter: 1 ID: 0
Read mode : SecureUtilize accurate stream : YesDefeat audio cache : YesMake use of C2 pointers : No
Read offset correction : 48Overread into Lead-In and Lead-Out : NoFill up missing offset samples with silence : YesDelete leading and trailing silent blocks : NoNull samples used in CRC calculations : YesUsed interface : Installed external ASPI interface
Used output format : Internal WAV RoutinesSample format : 44.100 Hz; 16 Bit; Stereo
TOC of the extracted CD
Track | Start | Length | Start sector | End sector --------------------------------------------------------- 1 | 0:00.00 | 11:49.48 | 0 | 53222 2 | 11:49.48 | 5:40.74 | 53223 | 78796 3 | 17:30.47 | 7:47.52 | 78797 | 113873 4 | 25:18.24 | 8:47.58 | 113874 | 153456
Range status and errors
Selected range
Filename C:\Program Files\Lossless\Samla (Zamla) Mammas Manna - Samla-Zamla Box (2008)\CD 7 - Snorungarnas Symfoni (1976)\Samla Mammas Manna - Snorungarnas Symfoni.wav
Peak level 98.8 % Range quality 100.0 % Copy CRC BDA50D3B Copy OK
No errors occurred
AccurateRip summary
Track 1 cannot be verified as accurate (confidence 2) [B0193240], AccurateRip returned [91D0F99D]Track 2 cannot be verified as accurate (confidence 1) [C65435BD], AccurateRip returned [6F8000FC]Track 3 cannot be verified as accurate (confidence 1) [69A84969], AccurateRip returned [F9EB0AEC]Track 4 cannot be verified as accurate (confidence 1) [5F7F7E18], AccurateRip returned [59E58C71]
No tracks could be verified as accurateYou may have a different pressing from the one(s) in the database
End of status report

.cue

REM GENRE Avant-ProgREM DATE 1976REM DISCID 1B07FE04REM COMMENT "ExactAudioCopy v0.99pb5"CATALOG 4988044330153PERFORMER "Samla Mammas Manna"TITLE "Snorungarnas Symfoni"FILE "Samla Mammas Manna - Snorungarnas Symfoni.flac" WAVE TRACK 01 AUDIO TITLE "Första Satsen" PERFORMER "Samla Mammas Manna" INDEX 01 00:00:00 TRACK 02 AUDIO TITLE "Andra Satsen" PERFORMER "Samla Mammas Manna" INDEX 01 11:49:48 TRACK 03 AUDIO TITLE "Tredje Satsen" PERFORMER "Samla Mammas Manna" INDEX 01 17:30:47 TRACK 04 AUDIO TITLE "Fjärde Satsen" PERFORMER "Samla Mammas Manna" INDEX 01 25:18:24

CueTools

[CUETools log; Date: 2019.01.04. 16:57:21; Version: 2.1.6][CTDB TOCID: GBtuL2daCoRL7XZOVbqPV79EHe8-] found.Track | CTDB Status 1 | (3/4) Accurately ripped 2 | (1/4) Accurately ripped 3 | (1/4) Accurately ripped 4 | (4/4) Accurately ripped[AccurateRip ID: 000617f7-0017e3b3-1b07fe04] found.Track [ CRC | V2 ] Status 01 [b0193240|91d0f99d] (2+2/4) Accurately ripped 02 [c65435bd|9dc6757d] (1+1/4) Accurately ripped 03 [69a84969|13cb047e] (1+1/4) Accurately ripped 04 [5f7f7e18|1f496569] (1+1/4) Accurately rippedOffsetted by 66: 01 [496d302d] (0/4) No match 02 [2eca7a31] (0/4) No match 03 [79fad8eb] (0/4) No match (V2 was not tested) 04 [59e58c71] (1/4) Accurately ripped
Track Peak [ CRC32 ] [W/O NULL] [ LOG ] -- 98,8 [BDA50D3B] [8DBD11BD] CRC32 01 98,8 [B0ED53E6] [33950858] 02 98,8 [C3397C48] [D947B63A] 03 98,8 [4BDBC885] [6F134943] 04 98,8 [24EA3495] [35127D8E]

CD8: Gregory Allan FitzPatrick - Bildcirkus (1978)

Продолжительность: 45:36
Трэклист:
01. Bildcirkus Marschen (3:22)
02. Sagoskogen (3:38)
03. Don Quijote (3:48)
04. Det Onda Tornet (1:46)
05. Det Goda Tornet (2:04)
06. Upproret (2:43)
07. Barkbåtsfärden (3:15)
08. Futuristernas Återkomst (3:07)
09. Karusellen 3:48)
10. Pianovariationer Över Bildcirkus Teman (16:22)
11. Hej Då (1:02)
Состав:
– Lasse Englund - Acoustic Guitar
– Ronney Van Settin - Alto Saxophone, Flute
– Hasse Brunnesson* - Drums
– Coste Apetrea - Electric Guitar
– Gregory Allan Fitzpatrick - Music By, Synthesizer
– Jean Billgren, Stefan Nilsson (10) - Piano
- Michael Söderlundh - Tenor Saxophone, Flute

Отчёт EAC

Exact Audio Copy V0.99 prebeta 5 from 4. May 2009
EAC extraction logfile from 20. March 2012, 23:41
Gregory Allan FitzPatrick / Bildcirkus
Used drive : Optiarc DVD RW AD-7200S Adapter: 1 ID: 0
Read mode : SecureUtilize accurate stream : YesDefeat audio cache : YesMake use of C2 pointers : No
Read offset correction : 48Overread into Lead-In and Lead-Out : NoFill up missing offset samples with silence : YesDelete leading and trailing silent blocks : NoNull samples used in CRC calculations : YesUsed interface : Installed external ASPI interface
Used output format : Internal WAV RoutinesSample format : 44.100 Hz; 16 Bit; Stereo
TOC of the extracted CD
Track | Start | Length | Start sector | End sector --------------------------------------------------------- 1 | 0:00.00 | 3:26.12 | 0 | 15461 2 | 3:26.12 | 3:41.38 | 15462 | 32074 3 | 7:07.50 | 3:53.25 | 32075 | 49574 4 | 11:01.00 | 1:47.30 | 49575 | 57629 5 | 12:48.30 | 2:07.07 | 57630 | 67161 6 | 14:55.37 | 2:48.00 | 67162 | 79761 7 | 17:43.37 | 3:19.63 | 79762 | 94749 8 | 21:03.25 | 3:12.65 | 94750 | 109214 9 | 24:16.15 | 3:52.60 | 109215 | 126674 10 | 28:09.00 | 16:25.00 | 126675 | 200549 11 | 44:34.00 | 1:02.66 | 200550 | 205265
Range status and errors
Selected range
Filename C:\Program Files\Lossless\Samla (Zamla) Mammas Manna - Samla-Zamla Box (2008)\CD 8 - Gregory Allan FitzPatrick - Bildcirkus (1978)\Gregory Allan FitzPatrick - Bildcirkus.wav
Peak level 98.8 % Range quality 99.9 % Copy CRC 98C83D44 Copy OK
No errors occurred
AccurateRip summary
Track 1 cannot be verified as accurate (confidence 2) [879D349B], AccurateRip returned [C0AE9BA8]Track 2 cannot be verified as accurate (confidence 2) [9A5E4FBB], AccurateRip returned [3C039C67]Track 3 cannot be verified as accurate (confidence 2) [67BF063D], AccurateRip returned [397E14DA]Track 4 cannot be verified as accurate (confidence 2) [3791231F], AccurateRip returned [A33ED515]Track 5 cannot be verified as accurate (confidence 2) [ABDD3509], AccurateRip returned [4E82206A]Track 6 cannot be verified as accurate (confidence 2) [1FCFF860], AccurateRip returned [950683A1]Track 7 cannot be verified as accurate (confidence 2) [AF9F73A2], AccurateRip returned [C0EB657D]Track 8 cannot be verified as accurate (confidence 2) [5E2F2662], AccurateRip returned [9089781F]Track 9 cannot be verified as accurate (confidence 2) [65317C26], AccurateRip returned [BEF9213A]Track 10 cannot be verified as accurate (confidence 2) [A05A6173], AccurateRip returned [4D7D5F88]Track 11 cannot be verified as accurate (confidence 2) [33C4FD66], AccurateRip returned [BAED0FA9]
No tracks could be verified as accurateYou may have a different pressing from the one(s) in the database
End of status report

.cue

REM GENRE Avant-ProgREM DATE 1978REM DISCID A20AB00BREM COMMENT "ExactAudioCopy v0.99pb5"CATALOG 4988044330160PERFORMER "Gregory Allan FitzPatrick"TITLE "Bildcirkus"FILE "Gregory Allan FitzPatrick - Bildcirkus.flac" WAVE TRACK 01 AUDIO TITLE "Bildcirkus Marschen" PERFORMER "Gregory Allan FitzPatrick" INDEX 01 00:00:00 TRACK 02 AUDIO TITLE "Sagoskogen" PERFORMER "Gregory Allan FitzPatrick" INDEX 01 03:26:12 TRACK 03 AUDIO TITLE "Don Quijote" PERFORMER "Gregory Allan FitzPatrick" INDEX 01 07:07:50 TRACK 04 AUDIO TITLE "Det Onda Tornet" PERFORMER "Gregory Allan FitzPatrick" INDEX 01 11:01:00 TRACK 05 AUDIO TITLE "Det Goda Tornet" PERFORMER "Gregory Allan FitzPatrick" INDEX 01 12:48:30 TRACK 06 AUDIO TITLE "Upproret" PERFORMER "Gregory Allan FitzPatrick" INDEX 01 14:55:37 TRACK 07 AUDIO TITLE "Barkbåtsfärden" PERFORMER "Gregory Allan FitzPatrick" INDEX 01 17:43:37 TRACK 08 AUDIO TITLE "Futuristernas Återkomst" PERFORMER "Gregory Allan FitzPatrick" INDEX 01 21:03:25 TRACK 09 AUDIO TITLE "Karusellen" PERFORMER "Gregory Allan FitzPatrick" INDEX 01 24:16:15 TRACK 10 AUDIO TITLE "Pianovariationer Över Bildcirkus Teman" PERFORMER "Gregory Allan FitzPatrick" INDEX 01 28:09:00 TRACK 11 AUDIO TITLE "Hej Då" PERFORMER "Gregory Allan FitzPatrick" INDEX 01 44:34:00

CueTools

[CUETools log; Date: 2019.01.04. 16:55:30; Version: 2.1.6][CTDB TOCID: jskWDnnYjg5KxTVy_LWekzMVLSU-] found.Track | CTDB Status 1 | (1/5) Accurately ripped 2 | (1/5) Accurately ripped 3 | (1/5) Accurately ripped 4 | (1/5) Accurately ripped 5 | (1/5) Accurately ripped 6 | (1/5) Accurately ripped 7 | (1/5) Accurately ripped 8 | (1/5) Accurately ripped 9 | (1/5) Accurately ripped 10 | (1/5) Accurately ripped 11 | (5/5) Accurately ripped[AccurateRip ID: 000fd72a-008d2bf9-a20ab00b] found.Track [ CRC | V2 ] Status 01 [879d349b|ce9c6dc3] (0+2/6) Accurately ripped 02 [9a5e4fbb|75b5f95f] (0+2/6) Accurately ripped 03 [67bf063d|3093132b] (0+2/6) Accurately ripped 04 [3791231f|0a5e62a0] (0+2/4) Accurately ripped 05 [abdd3509|9da7c109] (0+2/6) Accurately ripped 06 [1fcff860|da07fb64] (0+2/6) Accurately ripped 07 [af9f73a2|21f26636] (0+2/6) Accurately ripped 08 [5e2f2662|fecd5986] (0+2/6) Accurately ripped 09 [65317c26|ea2edab5] (0+2/6) Accurately ripped 10 [a05a6173|3c4b4be6] (0+2/6) Accurately ripped 11 [33c4fd66|c42319ee] (0+2/6) Accurately rippedOffsetted by 66: 01 [926ce673] (0/6) No match (V2 was not tested) 02 [20154663] (0/6) No match (V2 was not tested) 03 [f694e280] (0/6) No match (V2 was not tested) 04 [d38230a6] (0/4) No match (V2 was not tested) 05 [d6dfa848] (0/6) No match (V2 was not tested) 06 [e1736f24] (0/6) No match (V2 was not tested) 07 [2903f695] (0/6) No match (V2 was not tested) 08 [cee85d60] (0/6) No match (V2 was not tested) 09 [3d60aa1c] (0/6) No match (V2 was not tested) 10 [99b5697f] (0/6) No match (V2 was not tested) 11 [baed0fa9] (2/6) Accurately ripped
Track Peak [ CRC32 ] [W/O NULL] [ LOG ] -- 98,8 [98C83D44] [74691DD7] CRC32 01 98,8 [4595D117] [43A7A326] 02 98,8 [4C4D925A] [BCEB5125] 03 98,8 [6AFAB886] [EEBC950A] 04 98,8 [81FB7946] [F81801EB] 05 98,8 [58CE5C42] [2C766BB3] 06 98,8 [2308EA98] [AE598609] 07 98,8 [8EF449E0] [3E1C7B31] 08 98,8 [5229B3AA] [0DEE777B] 09 98,8 [BDA14268] [8417FCDC] 10 98,8 [07F6161A] [92D63F72] 11 98,8 [24BFA066] [B5BF2F85]
Источник: Torrentc сеть


[galltoto.com]_t_5669544.torrent
Торрент: Зарегистрирован ·  [ 2019-01-06 19:01 ] ·  f3cad3701aaba171e828c94ec3d09f4f46de47de

65 KB

Статус: проверено
Скачан: 0 раз
Размер: 2.45 GB
Оценка: 
(Голосов: 0)
Сказали спасибо: 0  Спасибо
Похожие темы
[Профиль]    [ЛС]
Показать сообщения:    
Ответить на тему

Текущее время: Сегодня 20:55

Часовой пояс: GMT + 7



Вы не можете начинать темы
Вы не можете отвечать на сообщения
Вы не можете редактировать свои сообщения
Вы не можете удалять свои сообщения
Вы не можете голосовать в опросах
Вы не можете прикреплять файлы к сообщениям
Вы можете скачивать файлы


Alita: Savaş Meleği Full HD Türkçe Dublaj 1080p izle | Bucky O’Hare | Die meist beobachteten