(Neo-Prog) [WEB] Metaphor - The Pearl - 2019, FLAC (tracks), lossless

Ответить на тему
Статистика раздачи [Обновить пиров]
Размер:  435 MB   |    Зарегистрирован:  12 дней   |    Скачан:  0 раз

Полного источника не было: Никогда

 
   
 
 
 
Автор Сообщение

galltoto.com

Создавать темы 06-Янв-2019 19:41

[Цитировать]

-Metaphor / The Pearl- -
Жанр: Neo-Prog
Носитель: WEB
Год издания: 2019
Страна исполнителя (группы): United States
Аудиокодек: FLAC (*.flac)
Тип рипа: tracks
Битрейт аудио: lossless
Продолжительность: 1:01:52
Источник (релизер): deezer
Наличие сканов в содержимом раздачи: нет 01. The Open Road (8:43)
02. Bruises and Blisters (5:52)
03. Lying Down with Dogs (6:15)
04. The Mist of Forgetting (7:03)
05. The Love Letter (9:31)
06. Remembering (7:20)
07. Romancing the Wurm (6:34)
08. The Eagle, The Voice, The Light (3:03)
09. Robed in Glory (7:30)

Лог проверки качества

-----------------------
DON'T MODIFY THIS FILE
-----------------------
PERFORMER: auCDtect Task Manager, ver. 1.6.0 RC1 build 1.6.0.1Copyright (c) 2008-2010 y-soft. All rights reservedhttp://y-soft.org
ANALYZER: auCDtect: CD records authenticity detector, version 0.8.2Copyright (c) 2004 Oleg Berngardt. All rights reserved.Copyright (c) 2004 Alexander Djourik. All rights reserved.
FILE: 09. Robed in Glory.flac Size: 56751681 Hash: 01E988CCC1B5FF13FB8B868E53F8FD03 Accuracy: -m0 Conclusion: CDDA 100% Signature: CB49A377E341CD3FBA27AF0897FBF16CA0A02C5AFILE: 08. The Eagle, The Voice, The Light.flac Size: 22389965 Hash: A2230226CB289FE98CB95B32C0ACD8ED Accuracy: -m0 Conclusion: CDDA 100% Signature: 2BBA9C53357E1C62169F4186F686BFE6C0EF90C0FILE: 07. Romancing the Wurm.flac Size: 45291210 Hash: E9094961BEC1EAFBB71BAF71694436D8 Accuracy: -m0 Conclusion: CDDA 100% Signature: 4CD4C64B14C8360922F44F75FA1F421F16994499FILE: 06. Remembering.flac Size: 52449461 Hash: 335F23E5667C78152DB3CD25B1E28B13 Accuracy: -m0 Conclusion: CDDA 100% Signature: 383522B25950482FCC7B88A20F51F08DA0BCA501FILE: 05. The Love Letter.flac Size: 68722116 Hash: FC5F9FEDE4DD9A761A83DB23ECF5A1CE Accuracy: -m0 Conclusion: CDDA 100% Signature: 6347496A99F2B354DFE0EB86367CCD32310699CCFILE: 04. The Mist of Forgetting.flac Size: 53622896 Hash: 48E0FA4958793148E3E953F18028A2CC Accuracy: -m0 Conclusion: CDDA 100% Signature: 4250430559F22C3CD697E8A5B52938A4A9F68C3AFILE: 03. Lying Down with Dogs.flac Size: 48862608 Hash: E2DD5F0E1D63F6C59E50FA899F39E00D Accuracy: -m0 Conclusion: CDDA 100% Signature: 49508046B2DDDB18813B986DF31A8B9BF48C1342FILE: 02. Bruises and Blisters.flac Size: 43746146 Hash: 1425FF38BD1137FCC7FC370AA834A747 Accuracy: -m0 Conclusion: CDDA 100% Signature: 809F2070116DE21BE1A24625F3EEA661E17E3AA3FILE: 01. The Open Road.flac Size: 63602798 Hash: 2D1C37E8A972A2C37DA7046DDF1FCF77 Accuracy: -m0 Conclusion: CDDA 100% Signature: E311EF636933FCC52171DCF8FD56A672CD238EEE

Лог DRM

foobar2000 1.3.9 / Dynamic Range Meter 1.1.1log date: 2019-01-05 01:06:32
--------------------------------------------------------------------------------Analyzed: Metaphor / The Pearl--------------------------------------------------------------------------------
DR Peak RMS Duration Track--------------------------------------------------------------------------------DR7 0.00 dB -8.42 dB 8:43 01-The Open RoadDR7 -0.01 dB -8.81 dB 5:52 02-Bruises and BlistersDR8 0.00 dB -8.80 dB 6:15 03-Lying Down with DogsDR6 -0.02 dB -7.70 dB 7:03 04-The Mist of ForgettingDR7 -0.01 dB -8.75 dB 9:31 05-The Love LetterDR7 0.00 dB -10.52 dB 7:20 06-RememberingDR6 -0.01 dB -8.27 dB 6:34 07-Romancing the WurmDR6 0.00 dB -8.53 dB 3:03 08-The Eagle, The Voice, The LightDR5 0.00 dB -6.42 dB 7:30 09-Robed in Glory--------------------------------------------------------------------------------
Number of tracks: 9Official DR value: DR7
Samplerate: 44100 HzChannels: 2Bits per sample: 16Bitrate: 1006 kbpsCodec: FLAC================================================================================
--

Состав

Bass – Jim Anderson
Drums – Greg Miller
Guitar [Guitars] – Malcolm Smith
Keyboards – Marc Spooner
Vocals – John Mabry


[galltoto.com]_t_5669568.torrent
Торрент: Зарегистрирован ·  [ 2019-01-06 19:01 ] ·  91486b1402cb3a13cdc1077704c1f3c03460a101

18 KB

Статус: проверено
Скачан: 0 раз
Размер: 435 MB
Оценка: 
(Голосов: 0)
Сказали спасибо: 0  Спасибо
Похожие темы
[Профиль]    [ЛС]
Показать сообщения:    
Ответить на тему

Текущее время: Сегодня 20:46

Часовой пояс: GMT + 7



Вы не можете начинать темы
Вы не можете отвечать на сообщения
Вы не можете редактировать свои сообщения
Вы не можете удалять свои сообщения
Вы не можете голосовать в опросах
Вы не можете прикреплять файлы к сообщениям
Вы можете скачивать файлы


Folk Tales - 648 Words | Pirate Kings: مغامرات الجُزر | Aventura