(Beat, Folk Rock, Psychedelic Rock) [CD] Skaldowie - Nagrania Koncertowe Z Lat 1966 - 1990 4XCD - 2008, WavPack (image+.cue), lossless

Ответить на тему
Статистика раздачи [Обновить пиров]
Размер:  1.43 GB   |    Зарегистрирован:  1 месяц 14 дней   |    Скачан:  0 раз

Полного источника не было: Никогда

 
   
 
 
 
Автор Сообщение

galltoto.com

Создавать темы 06-Янв-2019 19:41

[Цитировать]

Skaldowie / Nagrania Koncertowe Z Lat 1966 - 1990 4XCD
Жанр: Beat, Folk Rock, Psychedelic Rock
Носитель: CD
Страна-производитель диска (релиза): Poland
Год издания: 2008
Издатель (лейбл): Polskie Radio
Номер по каталогу: PRCD 1197-1200
Страна исполнителя (группы): PLR (Polska, ПНР)
Аудиокодек: WavPack (*.wv)
Тип рипа: image+.cue
Битрейт аудио: lossless
Продолжительность: 04:17:47
Источник (релизер): Рип издания из коллекции
Наличие сканов в содержимом раздачи: да
Треклист:

cd1 01:04:03

01. Niepotrzebne sіowa [0:02:04.09]
02. Pamiкtasz, jak mi powiedziaіaњ [0:03:33.05]
03. Jutro odnajdк ciebie [0:02:42.21]
04. Wieczorna opowieњж [0:02:44.28]
05. Work Song [0:02:50.02]
06. Ballada o biedaku [0:02:14.72]
07. Dzieс niepodobny do dnia [0:02:36.33]
08. Na wirsycku [0:02:52.22]
09. Ballada wкdrownych rycerzy [0:03:06.07]
10. Stary mіyn [0:03:44.56]
11. Uciekaj, uciekaj [0:02:57.50]
12. Czasem kochaж chcesz [0:04:13.29]
13. Miкdzy nami morze [0:03:23.24]
14. Zabroсcie kwitn№ж kwiatom [0:03:38.71]
15. Nocne tramwaje [0:03:09.70]
16. Sady w obіokach [0:02:27.02]
17. Wspуlny jest nasz њwiat [0:02:20.18]
18. Sen dla mojej dziewczyny [0:02:49.14]
19. Rodzi siк ptak [0:02:27.68]
20. Wszystko mi mуwi, їe mnie ktoњ pokochaі [0:02:09.47]
21. Nie caіuj mnie pierwsza [0:03:45.37]
22. Zielone oczy Anny [0:02:12.50]

Лог создания рипа

Exact Audio Copy V1.3 from 2. September 2016
EAC extraction logfile from 3. January 2019, 22:04
Skaldowie / Nagrania Koncertowe Z Lat 1966 - 1990 CD1
Used drive : ASUS SBW-06C1S-U Adapter: 1 ID: 0
Read mode : SecureUtilize accurate stream : YesDefeat audio cache : YesMake use of C2 pointers : No
Read offset correction : 48Overread into Lead-In and Lead-Out : NoFill up missing offset samples with silence : YesDelete leading and trailing silent blocks : NoNull samples used in CRC calculations : YesUsed interface : Native Win32 interface for Win NT & 2000
Used output format : User Defined EncoderSelected bitrate : 1024 kBit/sQuality : HighAdd ID3 tag : NoCommand line compressor : C:\Program Files (x86)\Exact Audio Copy\wavpack.exeAdditional command line options : -lm %source%
TOC of the extracted CD
Track | Start | Length | Start sector | End sector --------------------------------------------------------- 1 | 0:00.00 | 2:04.09 | 0 | 9308 2 | 2:04.09 | 3:33.05 | 9309 | 25288 3 | 5:37.14 | 2:42.21 | 25289 | 37459 4 | 8:19.35 | 2:44.28 | 37460 | 49787 5 | 11:03.63 | 2:50.02 | 49788 | 62539 6 | 13:53.65 | 2:14.72 | 62540 | 72661 7 | 16:08.62 | 2:36.33 | 72662 | 84394 8 | 18:45.20 | 2:52.22 | 84395 | 97316 9 | 21:37.42 | 3:06.07 | 97317 | 111273 10 | 24:43.49 | 3:44.56 | 111274 | 128129 11 | 28:28.30 | 2:57.50 | 128130 | 141454 12 | 31:26.05 | 4:13.29 | 141455 | 160458 13 | 35:39.34 | 3:23.24 | 160459 | 175707 14 | 39:02.58 | 3:38.71 | 175708 | 192128 15 | 42:41.54 | 3:09.70 | 192129 | 206373 16 | 45:51.49 | 2:27.02 | 206374 | 217400 17 | 48:18.51 | 2:20.18 | 217401 | 227918 18 | 50:38.69 | 2:49.14 | 227919 | 240607 19 | 53:28.08 | 2:27.68 | 240608 | 251700 20 | 55:56.01 | 2:09.47 | 251701 | 261422 21 | 58:05.48 | 3:45.37 | 261423 | 278334 22 | 61:51.10 | 2:12.50 | 278335 | 288284
Range status and errors
Selected range
Filename D:\wwphil\Skaldowie - Nagrania Koncertowe Z Lat 1966 - 1990 (2008, 4CD)\CD1\Skaldowie - Nagrania Koncertowe Z Lat 1966 - 1990 CD1.wav
Peak level 100.0 % Extraction speed 6.6 X Range quality 100.0 % Test CRC A7D6D660 Copy CRC A7D6D660 Copy OK
No errors occurred
AccurateRip summary
Track 1 accurately ripped (confidence 2) [0E5BE542] (AR v2)Track 2 accurately ripped (confidence 2) [BEDED2A0] (AR v2)Track 3 accurately ripped (confidence 2) [D50DF060] (AR v2)Track 4 accurately ripped (confidence 2) [78793D04] (AR v2)Track 5 accurately ripped (confidence 2) [4FED0452] (AR v2)Track 6 accurately ripped (confidence 2) [7A6E9FC1] (AR v2)Track 7 accurately ripped (confidence 2) [4A8625AF] (AR v2)Track 8 accurately ripped (confidence 2) [6AE7FF99] (AR v2)Track 9 accurately ripped (confidence 2) [D2CBDF52] (AR v2)Track 10 accurately ripped (confidence 2) [3B62972E] (AR v2)Track 11 accurately ripped (confidence 2) [8265CE0B] (AR v2)Track 12 accurately ripped (confidence 2) [6CB2EFB9] (AR v2)Track 13 accurately ripped (confidence 2) [042EC882] (AR v2)Track 14 accurately ripped (confidence 2) [BB5FFB87] (AR v2)Track 15 accurately ripped (confidence 2) [B9657B1F] (AR v2)Track 16 accurately ripped (confidence 2) [7EB9F096] (AR v2)Track 17 accurately ripped (confidence 2) [AC9F2785] (AR v2)Track 18 accurately ripped (confidence 2) [0D29EB26] (AR v2)Track 19 accurately ripped (confidence 2) [38233884] (AR v2)Track 20 accurately ripped (confidence 2) [750892C7] (AR v2)Track 21 accurately ripped (confidence 2) [D61786FD] (AR v2)Track 22 accurately ripped (confidence 2) [C1D22BA0] (AR v2)
All tracks accurately ripped
End of status report
==== Log checksum 99DB25ECB6B46BB99C8AFD4A439F14168D3E70293976B02D0D1CC04631A3265A ====

cd2 00:58:44

01. Cała jesteś w skowronkach [0:04:44.59]
02. Medytacje wiejskiego listonosza [0:02:53.15]
03. Dwadzieścia minut po północy [0:05:41.03]
04. Bas [0:02:51.26]
05. Wszystko mi mówi, że mnie ktoś pokochał [0:02:30.41]
06. Nadejdziesz od strony mórz [0:04:30.15]
07. Był taki czas [0:03:01.72]
08. Wiązanka piosenek o Warszawie [0:05:02.27]
09. Medytacje wiejskiego listonosza [0:02:49.05]
10. Póki ludzie się kochają [0:02:46.52]
11. W żółtych płomieniach liści [0:05:12.24]
12. Zapowiedź [0:00:18.34]
13. Nie ma szatana [0:02:10.34]
14. Od wschodu do zachodu słońca [0:05:21.74]
15. Póki ludzie się kochają [0:02:52.46]
16. Marszowa śpiewka [0:02:11.19]
17. Nadejdziesz od strony mórz [0:03:46.33]

Лог создания рипа

Exact Audio Copy V1.3 from 2. September 2016
EAC extraction logfile from 3. January 2019, 23:02
Skaldowie / Nagrania Koncertowe Z Lat 1966 – 1990 CD2
Used drive : ASUS SBW-06C1S-U Adapter: 1 ID: 0
Read mode : SecureUtilize accurate stream : YesDefeat audio cache : YesMake use of C2 pointers : No
Read offset correction : 48Overread into Lead-In and Lead-Out : NoFill up missing offset samples with silence : YesDelete leading and trailing silent blocks : NoNull samples used in CRC calculations : YesUsed interface : Native Win32 interface for Win NT & 2000
Used output format : User Defined EncoderSelected bitrate : 1024 kBit/sQuality : HighAdd ID3 tag : NoCommand line compressor : C:\Program Files (x86)\Exact Audio Copy\wavpack.exeAdditional command line options : -lm %source%
TOC of the extracted CD
Track | Start | Length | Start sector | End sector --------------------------------------------------------- 1 | 0:00.00 | 4:44.59 | 0 | 21358 2 | 4:44.59 | 2:53.15 | 21359 | 34348 3 | 7:37.74 | 5:41.03 | 34349 | 59926 4 | 13:19.02 | 2:51.26 | 59927 | 72777 5 | 16:10.28 | 2:30.41 | 72778 | 84068 6 | 18:40.69 | 4:30.15 | 84069 | 104333 7 | 23:11.09 | 3:01.72 | 104334 | 117980 8 | 26:13.06 | 5:02.27 | 117981 | 140657 9 | 31:15.33 | 2:49.05 | 140658 | 153337 10 | 34:04.38 | 2:46.52 | 153338 | 165839 11 | 36:51.15 | 5:12.24 | 165840 | 189263 12 | 42:03.39 | 0:18.34 | 189264 | 190647 13 | 42:21.73 | 2:10.34 | 190648 | 200431 14 | 44:32.32 | 5:21.74 | 200432 | 224580 15 | 49:54.31 | 2:52.46 | 224581 | 237526 16 | 52:47.02 | 2:11.19 | 237527 | 247370 17 | 54:58.21 | 3:46.33 | 247371 | 264353
Range status and errors
Selected range
Filename D:\wwphil\Skaldowie - Nagrania Koncertowe Z Lat 1966 - 1990 (2008, 4CD)\CD2\Skaldowie - Nagrania Koncertowe Z Lat 1966 – 1990 CD2.wav
Peak level 100.0 % Extraction speed 7.0 X Range quality 100.0 % Test CRC 70D70942 Copy CRC 70D70942 Copy OK
No errors occurred
AccurateRip summary
Track 1 accurately ripped (confidence 2) [CB9CD205] (AR v2)Track 2 accurately ripped (confidence 2) [C4FDED0F] (AR v2)Track 3 accurately ripped (confidence 2) [5C1D4DDE] (AR v2)Track 4 accurately ripped (confidence 2) [E8BA149A] (AR v2)Track 5 accurately ripped (confidence 2) [03A1F928] (AR v2)Track 6 accurately ripped (confidence 2) [DCFD297F] (AR v2)Track 7 accurately ripped (confidence 2) [163049A7] (AR v2)Track 8 accurately ripped (confidence 2) [70B6526B] (AR v2)Track 9 accurately ripped (confidence 2) [2C3D4818] (AR v2)Track 10 accurately ripped (confidence 2) [DC60AB17] (AR v2)Track 11 accurately ripped (confidence 2) [8C43BFD7] (AR v2)Track 12 accurately ripped (confidence 2) [FA8DE9A5] (AR v2)Track 13 accurately ripped (confidence 2) [E8FA3265] (AR v2)Track 14 accurately ripped (confidence 2) [CCAF33FF] (AR v2)Track 15 accurately ripped (confidence 2) [EC730424] (AR v2)Track 16 accurately ripped (confidence 2) [A25E0D4C] (AR v2)Track 17 accurately ripped (confidence 2) [186F2959] (AR v2)
All tracks accurately ripped
End of status report
==== Log checksum 87005101A773E796A25B2343D0893AF819DBE0FF1F65C170C030ECDB2D9508AD ====

cd3 01:06:59

01. Ty [0:03:20.36]
02. Wszystkim zakochanym [0:03:48.33]
03. Wiosną i wojną pękała ziemia [0:02:16.51]
04. Tyś jest naszą [0:03:08.39]
05. Kapral ci pomoże [0:01:27.50]
06. Malowany żołnierz [0:03:53.40]
07. Pożegnanie poetki [0:04:16.45]
08. Pod śliwką [0:03:01.06]
09. Na granicy dnia [0:04:00.65]
10. Słowa do matki [0:03:12.30]
11. Rodzi się ptak [0:02:28.07]
12. W żółtych płomieniach liści [0:05:40.38]
13. Nie ma szatana [0:02:01.11]
14. Wieczór na dworcu w Kansas City [0:02:10.21]
15. Pożegnanie poetki [0:03:50.38]
16. Życzenia z całego serca [0:05:42.65]
17. Wszystko kwitnie wkoło [0:03:50.40]
18. Dziś prawdziwych Cyganów już nie ma [0:04:17.44]
19. Sto tysięcy złotych [0:04:31.39]

Лог создания рипа

Exact Audio Copy V1.3 from 2. September 2016
EAC extraction logfile from 4. January 2019, 8:12
Skaldowie / Nagrania Koncertowe Z Lat 1966 – 1990 CD3
Used drive : ASUS SBW-06C1S-U Adapter: 1 ID: 0
Read mode : SecureUtilize accurate stream : YesDefeat audio cache : YesMake use of C2 pointers : No
Read offset correction : 48Overread into Lead-In and Lead-Out : NoFill up missing offset samples with silence : YesDelete leading and trailing silent blocks : NoNull samples used in CRC calculations : YesUsed interface : Native Win32 interface for Win NT & 2000
Used output format : User Defined EncoderSelected bitrate : 1024 kBit/sQuality : HighAdd ID3 tag : NoCommand line compressor : C:\Program Files (x86)\Exact Audio Copy\wavpack.exeAdditional command line options : -lm %source%
TOC of the extracted CD
Track | Start | Length | Start sector | End sector --------------------------------------------------------- 1 | 0:00.00 | 3:20.36 | 0 | 15035 2 | 3:20.36 | 3:48.33 | 15036 | 32168 3 | 7:08.69 | 2:16.51 | 32169 | 42419 4 | 9:25.45 | 3:08.39 | 42420 | 56558 5 | 12:34.09 | 1:27.50 | 56559 | 63133 6 | 14:01.59 | 3:53.40 | 63134 | 80648 7 | 17:55.24 | 4:16.45 | 80649 | 99893 8 | 22:11.69 | 3:01.06 | 99894 | 113474 9 | 25:13.00 | 4:00.65 | 113475 | 131539 10 | 29:13.65 | 3:12.30 | 131540 | 145969 11 | 32:26.20 | 2:28.07 | 145970 | 157076 12 | 34:54.27 | 5:40.38 | 157077 | 182614 13 | 40:34.65 | 2:01.11 | 182615 | 191700 14 | 42:36.01 | 2:10.21 | 191701 | 201471 15 | 44:46.22 | 3:50.38 | 201472 | 218759 16 | 48:36.60 | 5:42.65 | 218760 | 244474 17 | 54:19.50 | 3:50.40 | 244475 | 261764 18 | 58:10.15 | 4:17.44 | 261765 | 281083 19 | 62:27.59 | 4:31.39 | 281084 | 301447
Range status and errors
Selected range
Filename D:\wwphil\Skaldowie - Nagrania Koncertowe Z Lat 1966 - 1990 (2008, 4CD)\CD3\Skaldowie - Nagrania Koncertowe Z Lat 1966 – 1990 CD3.wav
Peak level 100.0 % Extraction speed 15.8 X Range quality 100.0 % Test CRC DB839A9A Copy CRC DB839A9A Copy OK
No errors occurred
AccurateRip summary
Track 1 accurately ripped (confidence 2) [186E42F9] (AR v2)Track 2 accurately ripped (confidence 2) [1F899071] (AR v2)Track 3 accurately ripped (confidence 2) [0A42CAC3] (AR v2)Track 4 accurately ripped (confidence 2) [D87FB962] (AR v2)Track 5 accurately ripped (confidence 2) [DFFF6733] (AR v2)Track 6 accurately ripped (confidence 2) [A1FFD3B5] (AR v2)Track 7 accurately ripped (confidence 2) [3B3DE250] (AR v2)Track 8 accurately ripped (confidence 2) [C5E2E833] (AR v2)Track 9 accurately ripped (confidence 2) [267F7F67] (AR v2)Track 10 accurately ripped (confidence 2) [D9C79DBD] (AR v2)Track 11 accurately ripped (confidence 2) [5CE1CA15] (AR v2)Track 12 accurately ripped (confidence 2) [6E2C9AEB] (AR v2)Track 13 accurately ripped (confidence 2) [DDB94375] (AR v2)Track 14 accurately ripped (confidence 2) [745E69E7] (AR v2)Track 15 accurately ripped (confidence 2) [789D9ADA] (AR v2)Track 16 accurately ripped (confidence 2) [3AD957AF] (AR v2)Track 17 accurately ripped (confidence 2) [6DE6618D] (AR v2)Track 18 accurately ripped (confidence 2) [A90146A0] (AR v2)Track 19 accurately ripped (confidence 2) [2ACBEA01] (AR v2)
All tracks accurately ripped
End of status report
==== Log checksum 29FDDCC5772CC8224F32BE3B2E27BD88F0FF0E19EF28119A0AF3477D36B49051 ====

cd4 01:08:18

01. Nie iwdze ciebie w swych marzeniach [0:06:02.66]
02. Dopoki jestes [0:03:31.52]
03. Pachnie chlebem [0:05:04.03]
04. Popoludnie z toba [0:04:26.21]
05. Cala jestes w skowronkach [0:04:29.32]
06. Biale choragwie wisien [0:03:44.06]
07. Twa jasna widze twarz [0:06:18.10]
08. Nie domykajmy drzwi [0:04:46.20]
09. Ty [0:03:31.36]
10. Przesliczna wiolonczelistka [0:03:21.31]
11. Harmonia swiata [0:06:15.46]
12. Przed wielkim lustrem [0:03:43.09]
13. Wiazanka przebojow [0:06:50.36]
14. Przesliczna wiolonczelistka [0:03:32.44]
15. Wszystko mi mowi, ze mnie ktos pokochal [0:02:40.65]

Лог создания рипа

Exact Audio Copy V1.3 from 2. September 2016
EAC extraction logfile from 4. January 2019, 17:37
Skaldowie / Nagrania Koncertowe Z Lat 1966-1990 CD4
Used drive : ASUS SBW-06C1S-U Adapter: 1 ID: 0
Read mode : SecureUtilize accurate stream : YesDefeat audio cache : YesMake use of C2 pointers : No
Read offset correction : 48Overread into Lead-In and Lead-Out : NoFill up missing offset samples with silence : YesDelete leading and trailing silent blocks : NoNull samples used in CRC calculations : YesUsed interface : Native Win32 interface for Win NT & 2000
Used output format : User Defined EncoderSelected bitrate : 1024 kBit/sQuality : HighAdd ID3 tag : NoCommand line compressor : C:\Program Files (x86)\Exact Audio Copy\wavpack.exeAdditional command line options : -lm %source%
TOC of the extracted CD
Track | Start | Length | Start sector | End sector --------------------------------------------------------- 1 | 0:00.00 | 6:02.66 | 0 | 27215 2 | 6:02.66 | 3:31.52 | 27216 | 43092 3 | 9:34.43 | 5:04.03 | 43093 | 65895 4 | 14:38.46 | 4:26.21 | 65896 | 85866 5 | 19:04.67 | 4:29.32 | 85867 | 106073 6 | 23:34.24 | 3:44.06 | 106074 | 122879 7 | 27:18.30 | 6:18.10 | 122880 | 151239 8 | 33:36.40 | 4:46.20 | 151240 | 172709 9 | 38:22.60 | 3:31.36 | 172710 | 188570 10 | 41:54.21 | 3:21.31 | 188571 | 203676 11 | 45:15.52 | 6:15.46 | 203677 | 231847 12 | 51:31.23 | 3:43.09 | 231848 | 248581 13 | 55:14.32 | 6:50.36 | 248582 | 279367 14 | 62:04.68 | 3:32.44 | 279368 | 295311 15 | 65:37.37 | 2:40.65 | 295312 | 307376
Range status and errors
Selected range
Filename D:\wwphil\Skaldowie - Nagrania Koncertowe Z Lat 1966 - 1990 (2008, 4CD)\CD4\Skaldowie - Nagrania Koncertowe Z Lat 1966-1990 CD4.wav
Peak level 100.0 % Extraction speed 6.8 X Range quality 100.0 % Test CRC A3007897 Copy CRC A3007897 Copy OK
No errors occurred
AccurateRip summary
Track 1 accurately ripped (confidence 2) [3719EC23] (AR v2)Track 2 accurately ripped (confidence 2) [7F34BBAC] (AR v2)Track 3 accurately ripped (confidence 2) [E045919A] (AR v2)Track 4 accurately ripped (confidence 2) [ED0CF2D2] (AR v2)Track 5 accurately ripped (confidence 2) [BD726A41] (AR v2)Track 6 accurately ripped (confidence 2) [43E5C27B] (AR v2)Track 7 accurately ripped (confidence 2) [7A3A5B40] (AR v2)Track 8 accurately ripped (confidence 2) [3A6BA384] (AR v2)Track 9 accurately ripped (confidence 2) [1AE2362A] (AR v2)Track 10 accurately ripped (confidence 2) [D8EA19FE] (AR v2)Track 11 accurately ripped (confidence 2) [DB43031F] (AR v2)Track 12 accurately ripped (confidence 2) [A4EC07B2] (AR v2)Track 13 accurately ripped (confidence 2) [9E08BB55] (AR v2)Track 14 accurately ripped (confidence 2) [30C411C7] (AR v2)Track 15 accurately ripped (confidence 1) [17D70908] (AR v2)
All tracks accurately ripped
End of status report
==== Log checksum B2B1F8C773626C09D65F53760186CEEBD9BE79202A4C88624E7A397258C1E94A ====

Скриншот спектра частот cd1-4

Доп. информация:
Z Archiwum Polskiego Radia – Vol. 16-17
Format:
4 × CD, Compilation

Об исполнителе (группе)

http://www.progarchives.com/artist.asp?id=2590
На замену рипа с несоответствующими настройками рипа http://Torrentc/forum/viewtopic.php?t=5564581


[galltoto.com]_t_5669789.torrent
Торрент: Зарегистрирован ·  [ 2019-01-06 19:01 ] ·  75e3b5be8137120584979292dad3c85a4d3f1b2b

16 KB

Статус: проверено
Скачан: 0 раз
Размер: 1.43 GB
Оценка: 
(Голосов: 0)
Сказали спасибо: 0  Спасибо
Похожие темы
[Профиль]    [ЛС]
Показать сообщения:    
Ответить на тему

Текущее время: Сегодня 18:59

Часовой пояс: GMT + 7



Вы не можете начинать темы
Вы не можете отвечать на сообщения
Вы не можете редактировать свои сообщения
Вы не можете удалять свои сообщения
Вы не можете голосовать в опросах
Вы не можете прикреплять файлы к сообщениям
Вы можете скачивать файлы


Serial Experiments Lain | The Daily Show Season 24 Episode 62(Chris Wilson) | Aaron L. McGrath