(Шансон) [CD] VA - Золотые Баллады Шансона - 5 CD 2003, FLAC (image+.cue), lossless

Ответить на тему
Статистика раздачи [Обновить пиров]
Размер:  2.62 GB   |    Зарегистрирован:  13 дней   |    Скачан:  0 раз

Полного источника не было: Никогда

 
   
 
 
 
Автор Сообщение

galltoto.com

Создавать темы 05-Янв-2019 14:45

[Цитировать]

--Золотые Баллады Шансона 5 CD-- Жанр: Шансон
Носитель: CD
Страна-производитель диска (релиза): Украина
Год издания: 2003
Издатель (лейбл): СиДи Мастер
Страна исполнителя (группы): Украина
Аудиокодек: FLAC (*.flac)
Тип рипа: image+.cue
Битрейт аудио: lossless
Продолжительность: 06:40:15
Источник (релизер): Собственный рип
Наличие сканов в содержимом раздачи: да
Треклист:

CD1

01 Михаил Круг - Магадан
02. Сергей Трофимов - Я скучаю по тебе
03. Иван Кучин - Портрет
04. Сергей Наговицын - Этап
05. Михаил Шуфутинский - Цветет багульник
06. Ирина Круг - Перелетная птица
07. Александр Дюмин - Братушка
08. Виктор Королев - Лилия
09. Катя Огонек - Горький мед
10. Стас Белый - Декабристка
11. Виктор Петлюра - Фотоснимок
12. Эдуард Видный - Тишина
13. Бумеr - Косыночка
14. Михаил Гулько и Воровайки - Столыпин
15. Жека - Играет Дассен
16. Сергей Любавин и Татьяна Буланова - Цветок
17. Игорь Слуцкий - Человек не любивший меня
18. Воровайки - Я буду долго ждать весну
19. Александр Вестов - Жизнь-монета
20. Татьяна Тишинская и Александр Дюмин - Май
Продолжительность: 01:19:10

Отчёт EAC

Exact Audio Copy V1.3 from 2. September 2016
Отчёт EAC об извлечении, выполненном 15. июня 2018, 17:26
VA / Золотые Баллады Шансона CD1
Дисковод: HL-DT-STDVDRAM GH24NSB0 Adapter: 1 ID: 0
Режим чтения : ДостоверностьИспользование точного потока : ДаОтключение кэша аудио : ДаИспользование указателей C2 : Нет
Коррекция смещения при чтении : 6Способность читать области Lead-in и Lead-out : НетЗаполнение пропущенных сэмплов тишиной : ДаУдаление блоков с тишиной в начале и конце : НетПри вычислениях CRC использовались нулевые сэмплы : ДаИнтерфейс : Встроенный Win32-интерфейс для Win NT/2000
Выходной формат : Пользовательский кодировщикВыбранный битрейт : 768 kBit/sКачество : ВысокийДобавление ID3-тега : НетУтилита сжатия : C:\Program Files\Exact Audio Copy\FLAC\FLAC.EXEДополнительные параметры : -6 -V -T "ARTIST=%artist%" -T "TITLE=%title%" -T "ALBUM=%albumtitle%" -T "DATE=%year%" -T "TRACKNUMBER=%tracknr%" -T "GENRE=%genre%" -T "COMMENT=%comment%" -T "BAND=%albuminterpret%" -T "ALBUMARTIST=%albuminterpret%" -T "COMPOSER=%composer%" %haslyrics%--tag-from-file=LYRICS="%lyricsfile%"%haslyrics% -T "DISCNUMBER=%cdnumber%" -T "TOTALDISCS=%totalcds%" -T "TOTALTRACKS=%numtracks%" %hascover%--picture="%coverfile%"%hascover% %source% -o %dest%
TOC извлечённого CD
Трек | Старт | Длительность | Начальный сектор | Конечный сектор --------------------------------------------------------------------- 1 | 0:00.00 | 4:28.63 | 0 | 20162 2 | 4:28.63 | 4:12.48 | 20163 | 39110 3 | 8:41.36 | 3:58.07 | 39111 | 56967 4 | 12:39.43 | 4:48.38 | 56968 | 78605 5 | 17:28.06 | 4:49.71 | 78606 | 100351 6 | 22:18.02 | 4:09.03 | 100352 | 119029 7 | 26:27.05 | 3:25.48 | 119030 | 134452 8 | 29:52.53 | 3:26.73 | 134453 | 149975 9 | 33:19.51 | 3:19.40 | 149976 | 164940 10 | 36:39.16 | 3:58.22 | 164941 | 182812 11 | 40:37.38 | 4:17.04 | 182813 | 202091 12 | 44:54.42 | 3:51.28 | 202092 | 219444 13 | 48:45.70 | 4:25.47 | 219445 | 239366 14 | 53:11.42 | 4:13.12 | 239367 | 258353 15 | 57:24.54 | 4:21.06 | 258354 | 277934 16 | 61:45.60 | 3:54.01 | 277935 | 295485 17 | 65:39.61 | 2:51.44 | 295486 | 308354 18 | 68:31.30 | 4:03.70 | 308355 | 326649 19 | 72:35.25 | 4:09.04 | 326650 | 345328 20 | 76:44.29 | 3:02.07 | 345329 | 358985
Характеристики диапазона извлечения и сообщения об ошибках
Выбранный диапазон
Имя файла D:\VA - Золотые Баллады Шансона CD1.wav
Пиковый уровень 100.0 % Скорость извлечения 2.1 X Качество диапазона 99.9 % CRC теста 430E2F25 CRC копии 430E2F25 Копирование... OK
Ошибок не произошло
AccurateRip: сводка
Трек 1 : извлечено точно (доверие 1) [9B1D6A53] (AR v2)Трек 2 : извлечено точно (доверие 1) [B7AF24D4] (AR v2)Трек 3 : извлечено точно (доверие 1) [2D36AF41] (AR v2)Трек 4 : извлечено точно (доверие 1) [302DAC53] (AR v2)Трек 5 : извлечено точно (доверие 1) [17DFC877] (AR v2)Трек 6 : извлечено точно (доверие 1) [54292FF4] (AR v2)Трек 7 : извлечено точно (доверие 1) [D5FAD035] (AR v2)Трек 8 : извлечено точно (доверие 1) [26FD0176] (AR v2)Трек 9 : извлечено точно (доверие 1) [0D110FD3] (AR v2)Трек 10 : извлечено точно (доверие 1) [AE9FE981] (AR v2)Трек 11 : извлечено точно (доверие 1) [4D631689] (AR v2)Трек 12 : извлечено точно (доверие 1) [B927E6B7] (AR v2)Трек 13 : извлечено точно (доверие 1) [7197CAF7] (AR v2)Трек 14 : извлечено точно (доверие 1) [C155AAD5] (AR v2)Трек 15 : извлечено точно (доверие 1) [0345F895] (AR v2)Трек 16 : извлечено точно (доверие 1) [922272DF] (AR v2)Трек 17 : извлечено точно (доверие 1) [F0FA38B9] (AR v2)Трек 18 : извлечено точно (доверие 1) [32616AD1] (AR v2)Трек 19 : извлечено точно (доверие 1) [5691830C] (AR v2)Трек 20 : извлечено точно (доверие 1) [E41907B2] (AR v2)
Все треки извлечены точно
Конец отчёта
---- CUETools DB Plugin V2.1.6
[CTDB TOCID: LZDSBmGWowYEUio_RjlKlvSnW_o-] disk not present in databaseSubmit result: LZDSBmGWowYEUio_RjlKlvSnW_o- has been uploaded
==== Контрольная сумма отчёта 096951B2E28F9FC5B4E39012286CF45DC2FA33E4C48B934F5917D83EB6F3BC96 ====

Содержание индексной карты (.CUE)

REM GENRE ШансонREM DATE 2003REM DISCID 1212B214REM COMMENT "ExactAudioCopy v1.3"PERFORMER "VA"TITLE "Золотые Баллады Шансона CD1"REM COMPOSER ""FILE "VA - Золотые Баллады Шансона CD1.flac" WAVE TRACK 01 AUDIO TITLE "Магадан" PERFORMER "Михаил Круг " REM COMPOSER "" INDEX 01 00:00:00 TRACK 02 AUDIO TITLE "Сергей Трофимов" PERFORMER "Я скучаю по тебе" REM COMPOSER "" INDEX 00 04:26:63 INDEX 01 04:28:63 TRACK 03 AUDIO TITLE "Иван Кучин" PERFORMER "Портрет" REM COMPOSER "" INDEX 00 08:39:36 INDEX 01 08:41:36 TRACK 04 AUDIO TITLE "Сергей Наговицын" PERFORMER "Этап" REM COMPOSER "" INDEX 00 12:37:43 INDEX 01 12:39:43 TRACK 05 AUDIO TITLE "Михаил Шуфутинский" PERFORMER "Цветет багульник" REM COMPOSER "" INDEX 00 17:26:06 INDEX 01 17:28:06 TRACK 06 AUDIO TITLE "Ирина Круг" PERFORMER "Перелетная птица" REM COMPOSER "" INDEX 00 22:16:02 INDEX 01 22:18:02 TRACK 07 AUDIO TITLE "Александр Дюмин" PERFORMER "Братушка" REM COMPOSER "" INDEX 00 26:25:05 INDEX 01 26:27:05 TRACK 08 AUDIO TITLE "Виктор Королев" PERFORMER "Лилия" REM COMPOSER "" INDEX 00 29:50:53 INDEX 01 29:52:53 TRACK 09 AUDIO TITLE "Катя Огонек" PERFORMER "Горький мед" REM COMPOSER "" INDEX 00 33:17:51 INDEX 01 33:19:51 TRACK 10 AUDIO TITLE "Стас Белый" PERFORMER "Декабристка" REM COMPOSER "" INDEX 00 36:37:16 INDEX 01 36:39:16 TRACK 11 AUDIO TITLE "Виктор Петлюра" PERFORMER "Фотоснимок" REM COMPOSER "" INDEX 00 40:35:38 INDEX 01 40:37:38 TRACK 12 AUDIO TITLE "Эдуард Видный" PERFORMER "Тишина" REM COMPOSER "" INDEX 00 44:52:42 INDEX 01 44:54:42 TRACK 13 AUDIO TITLE "Бумеr" PERFORMER "Косыночка" REM COMPOSER "" INDEX 00 48:43:70 INDEX 01 48:45:70 TRACK 14 AUDIO TITLE "Михаил Гулько и Воровайки" PERFORMER "Столыпин" REM COMPOSER "" INDEX 00 53:09:42 INDEX 01 53:11:42 TRACK 15 AUDIO TITLE "Жека" PERFORMER "Играет Дассен" REM COMPOSER "" INDEX 00 57:22:54 INDEX 01 57:24:54 TRACK 16 AUDIO TITLE "Сергей Любавин и Татьяна Буланова" PERFORMER "Цветок" REM COMPOSER "" INDEX 00 61:43:60 INDEX 01 61:45:60 TRACK 17 AUDIO TITLE "Игорь Слуцкий " PERFORMER "Человек не любивший меня" REM COMPOSER "" INDEX 00 65:37:61 INDEX 01 65:39:61 TRACK 18 AUDIO TITLE "Воровайки " PERFORMER "Я буду долго ждать весну" REM COMPOSER "" INDEX 00 68:29:30 INDEX 01 68:31:30 TRACK 19 AUDIO TITLE "Александр Вестов" PERFORMER "Жизнь-монета" REM COMPOSER "" INDEX 00 72:33:25 INDEX 01 72:35:25 TRACK 20 AUDIO TITLE "Татьяна Тишинская и Александр Дюмин" PERFORMER "Май" REM COMPOSER "" INDEX 00 76:42:29 INDEX 01 76:44:29

CD2

01. Анатолий Полотно - Снег растаял...
02. Диана Теркулова и Жека - Два крыла
03. Леон Петросов - Караванщик
04. Михаил Шелег - Привет
05. Виктория Цыганова - Гроздья рябины
06. Федя Карманов - Мундирчик
07. Дмитрий Василевский - Сука-разлука
08. Сергей Север - Юбочка вразлет
09. Катюша - Ключи от счастья
10. Григорий Заречный - Дождь
11. Сандра Петросова - Только ушло
12. Сергей Гинзбург - Я плачу
13. Вера Снежная - Мартовский снег
14. Михаил Круг - Купола
15. Сергей Трофимов - Ветерок
16. Иван Кучин - Пройдут года
17. Михаил Шуфутинский и Яна Павлова - Северная весна
18. Ирина КРУГ - В плену твоих рук
19. Александр Дюмин - Человек с гитарою
20. Виктор Королев - Душа
Продолжительность: 01:20:06

Отчёт EAC

Exact Audio Copy V1.3 from 2. September 2016
Отчёт EAC об извлечении, выполненном 15. июня 2018, 19:07
VA / Золотые Баллады Шансона CD2
Дисковод: HL-DT-STDVDRAM GH24NSB0 Adapter: 1 ID: 0
Режим чтения : ДостоверностьИспользование точного потока : ДаОтключение кэша аудио : ДаИспользование указателей C2 : Нет
Коррекция смещения при чтении : 6Способность читать области Lead-in и Lead-out : НетЗаполнение пропущенных сэмплов тишиной : ДаУдаление блоков с тишиной в начале и конце : НетПри вычислениях CRC использовались нулевые сэмплы : ДаИнтерфейс : Встроенный Win32-интерфейс для Win NT/2000
Выходной формат : Пользовательский кодировщикВыбранный битрейт : 768 kBit/sКачество : ВысокийДобавление ID3-тега : НетУтилита сжатия : C:\Program Files\Exact Audio Copy\FLAC\FLAC.EXEДополнительные параметры : -6 -V -T "ARTIST=%artist%" -T "TITLE=%title%" -T "ALBUM=%albumtitle%" -T "DATE=%year%" -T "TRACKNUMBER=%tracknr%" -T "GENRE=%genre%" -T "COMMENT=%comment%" -T "BAND=%albuminterpret%" -T "ALBUMARTIST=%albuminterpret%" -T "COMPOSER=%composer%" %haslyrics%--tag-from-file=LYRICS="%lyricsfile%"%haslyrics% -T "DISCNUMBER=%cdnumber%" -T "TOTALDISCS=%totalcds%" -T "TOTALTRACKS=%numtracks%" %hascover%--picture="%coverfile%"%hascover% %source% -o %dest%
TOC извлечённого CD
Трек | Старт | Длительность | Начальный сектор | Конечный сектор --------------------------------------------------------------------- 1 | 0:00.00 | 5:22.47 | 0 | 24196 2 | 5:22.47 | 4:41.35 | 24197 | 45306 3 | 10:04.07 | 4:00.71 | 45307 | 63377 4 | 14:05.03 | 4:33.08 | 63378 | 83860 5 | 18:38.11 | 4:24.15 | 83861 | 103675 6 | 23:02.26 | 3:39.08 | 103676 | 120108 7 | 26:41.34 | 4:32.69 | 120109 | 140577 8 | 31:14.28 | 3:28.06 | 140578 | 156183 9 | 34:42.34 | 4:47.65 | 156184 | 177773 10 | 39:30.24 | 3:54.08 | 177774 | 195331 11 | 43:24.32 | 3:23.27 | 195332 | 210583 12 | 46:47.59 | 3:18.51 | 210584 | 225484 13 | 50:06.35 | 4:01.14 | 225485 | 243573 14 | 54:07.49 | 5:07.26 | 243574 | 266624 15 | 59:15.00 | 3:30.07 | 266625 | 282381 16 | 62:45.07 | 3:38.09 | 282382 | 298740 17 | 66:23.16 | 3:20.21 | 298741 | 313761 18 | 69:43.37 | 3:43.06 | 313762 | 330492 19 | 73:26.43 | 3:08.08 | 330493 | 344600 20 | 76:34.51 | 3:31.13 | 344601 | 360438
Характеристики диапазона извлечения и сообщения об ошибках
Выбранный диапазон
Имя файла D:\VA - Золотые Баллады Шансона CD2.wav
Пиковый уровень 100.0 % Скорость извлечения 2.1 X Качество диапазона 100.0 % CRC теста F342D19E CRC копии F342D19E Копирование... OK
Ошибок не произошло
AccurateRip: сводка
Трек 1 отсутствует в базе данныхТрек 2 отсутствует в базе данныхТрек 3 отсутствует в базе данныхТрек 4 отсутствует в базе данныхТрек 5 отсутствует в базе данныхТрек 6 отсутствует в базе данныхТрек 7 отсутствует в базе данныхТрек 8 отсутствует в базе данныхТрек 9 отсутствует в базе данныхТрек 10 отсутствует в базе данныхТрек 11 отсутствует в базе данныхТрек 12 отсутствует в базе данныхТрек 13 отсутствует в базе данныхТрек 14 отсутствует в базе данныхТрек 15 отсутствует в базе данныхТрек 16 отсутствует в базе данныхТрек 17 отсутствует в базе данныхТрек 18 отсутствует в базе данныхТрек 19 отсутствует в базе данныхТрек 20 отсутствует в базе данных
Ни одного трека нет в базе AccurateRip
Конец отчёта
---- CUETools DB Plugin V2.1.6
[CTDB TOCID: BbXuDl6X5OkpooDyHtDxDh.ct5o-] disk not present in databaseSubmit result: The request was aborted: The request was canceled.
==== Контрольная сумма отчёта 6AF34C0DD9A328FDAA6A3993C6CB9AF1795B0C414D24A2EF4D1F5C660E2A1BBE ====

Содержание индексной карты (.CUE)

REM GENRE ШансонREM DATE 2003REM DISCID 3712C514REM COMMENT "ExactAudioCopy v1.3"PERFORMER "VA"TITLE "Золотые Баллады Шансона CD2"REM COMPOSER ""FILE "VA - Золотые Баллады Шансона CD2.flac" WAVE TRACK 01 AUDIO TITLE "Снег растаял..." PERFORMER "Анатолий Полотно" REM COMPOSER "" INDEX 01 00:00:00 TRACK 02 AUDIO TITLE "Два крыла" PERFORMER "Диана Теркулова и Жека" REM COMPOSER "" INDEX 01 05:22:47 TRACK 03 AUDIO TITLE "Караванщик" PERFORMER "Леон Петросов" REM COMPOSER "" INDEX 01 10:04:07 TRACK 04 AUDIO TITLE "Привет" PERFORMER "Михаил Шелег" REM COMPOSER "" INDEX 01 14:05:03 TRACK 05 AUDIO TITLE "Гроздья рябины" PERFORMER "Виктория Цыганова" REM COMPOSER "" INDEX 01 18:38:11 TRACK 06 AUDIO TITLE "Мундирчик" PERFORMER "Федя Карманов" REM COMPOSER "" INDEX 01 23:02:26 TRACK 07 AUDIO TITLE "Сука-разлука" PERFORMER "Дмитрий Василевский" REM COMPOSER "" INDEX 01 26:41:34 TRACK 08 AUDIO TITLE "Юбочка вразлет" PERFORMER "Сергей Север" REM COMPOSER "" INDEX 01 31:14:28 TRACK 09 AUDIO TITLE "Ключи от счастья" PERFORMER "Катюша" REM COMPOSER "" INDEX 01 34:42:34 TRACK 10 AUDIO TITLE "Дождь" PERFORMER "Григорий Заречный" REM COMPOSER "" INDEX 01 39:30:24 TRACK 11 AUDIO TITLE "Только ушло" PERFORMER "Сандра Петросова" REM COMPOSER "" INDEX 01 43:24:32 TRACK 12 AUDIO TITLE "Я плачу" PERFORMER "Сергей Гинзбург" REM COMPOSER "" INDEX 01 46:47:59 TRACK 13 AUDIO TITLE "Мартовский снег" PERFORMER "Вера Снежная " REM COMPOSER "" INDEX 01 50:06:35 TRACK 14 AUDIO TITLE "Купола" PERFORMER "Михаил Круг" REM COMPOSER "" INDEX 01 54:07:49 TRACK 15 AUDIO TITLE "Ветерок" PERFORMER "Сергей Трофимов" REM COMPOSER "" INDEX 01 59:15:00 TRACK 16 AUDIO TITLE "Пройдут года" PERFORMER "Иван Кучин " REM COMPOSER "" INDEX 01 62:45:07 TRACK 17 AUDIO TITLE "Северная весна" PERFORMER "Михаил Шуфутинский и Яна Павлова" REM COMPOSER "" INDEX 01 66:23:16 TRACK 18 AUDIO TITLE "В плену твоих рук" PERFORMER "Ирина КРУГ" REM COMPOSER "" INDEX 01 69:43:37 TRACK 19 AUDIO TITLE "Человек с гитарою" PERFORMER "Александр Дюмин" REM COMPOSER "" INDEX 01 73:26:43 TRACK 20 AUDIO TITLE "Душа" PERFORMER "Виктор Королев" REM COMPOSER "" INDEX 01 76:34:51

CD3

1. Катя Огонек - Белая тайга
2. Стас Белый - Романс
3. Виктор Петлюра - Тополиная аллея
4. Эдуард Видный и Татьяна Тишинская - Дым от сигарет
5. Бумеr - Судьба
6. Михаил Гулько - Старая фотография
7. Жека - Купола
8. Сергей Любавин - Эта женщина
9. Игорь Слуцкий - Три дня
10. Воровайки - Тополь
11. Александр Вестов - Достучаться до небес
12. Татьяна Тишинская - Красавчик
13. Анатолий Полотно - Не зови
14. Леон Петросов - На востоке
15. Михаил Шелег - Белый ангел
16. Виктория Цыганова - Лето пьяное
17. Сергей Север - Осень-мулатка
18. Григорий Заречный - Ночь
19. Сергей Гинзбург - Журавли
20. Михаил Круг - Приходите в мой дом
Продолжительность: 01:20:00

Отчёт EAC

Exact Audio Copy V1.3 from 2. September 2016
Отчёт EAC об извлечении, выполненном 17. июня 2018, 12:44
VA / Золотые Баллады Шансона CD 3
Дисковод: HL-DT-STDVDRAM GH24NSB0 Adapter: 1 ID: 0
Режим чтения : ДостоверностьИспользование точного потока : ДаОтключение кэша аудио : ДаИспользование указателей C2 : Нет
Коррекция смещения при чтении : 6Способность читать области Lead-in и Lead-out : НетЗаполнение пропущенных сэмплов тишиной : ДаУдаление блоков с тишиной в начале и конце : НетПри вычислениях CRC использовались нулевые сэмплы : ДаИнтерфейс : Встроенный Win32-интерфейс для Win NT/2000
Выходной формат : Пользовательский кодировщикВыбранный битрейт : 768 kBit/sКачество : ВысокийДобавление ID3-тега : НетУтилита сжатия : C:\Program Files\Exact Audio Copy\FLAC\FLAC.EXEДополнительные параметры : -6 -V -T "ARTIST=%artist%" -T "TITLE=%title%" -T "ALBUM=%albumtitle%" -T "DATE=%year%" -T "TRACKNUMBER=%tracknr%" -T "GENRE=%genre%" -T "COMMENT=%comment%" -T "BAND=%albuminterpret%" -T "ALBUMARTIST=%albuminterpret%" -T "COMPOSER=%composer%" %haslyrics%--tag-from-file=LYRICS="%lyricsfile%"%haslyrics% -T "DISCNUMBER=%cdnumber%" -T "TOTALDISCS=%totalcds%" -T "TOTALTRACKS=%numtracks%" %hascover%--picture="%coverfile%"%hascover% %source% -o %dest%
TOC извлечённого CD
Трек | Старт | Длительность | Начальный сектор | Конечный сектор --------------------------------------------------------------------- 1 | 0:00.00 | 4:41.01 | 0 | 21075 2 | 4:41.01 | 4:16.05 | 21076 | 40280 3 | 8:57.06 | 3:13.05 | 40281 | 54760 4 | 12:10.11 | 3:42.03 | 54761 | 71413 5 | 15:52.14 | 3:42.34 | 71414 | 88097 6 | 19:34.48 | 3:08.51 | 88098 | 102248 7 | 22:43.24 | 3:41.66 | 102249 | 118889 8 | 26:25.15 | 4:18.55 | 118890 | 138294 9 | 30:43.70 | 3:23.35 | 138295 | 153554 10 | 34:07.30 | 5:22.00 | 153555 | 177704 11 | 39:29.30 | 4:36.36 | 177705 | 198440 12 | 44:05.66 | 2:20.28 | 198441 | 208968 13 | 46:26.19 | 5:40.06 | 208969 | 234474 14 | 52:06.25 | 3:35.36 | 234475 | 250635 15 | 55:41.61 | 3:59.05 | 250636 | 268565 16 | 59:40.66 | 4:00.06 | 268566 | 286571 17 | 63:40.72 | 3:31.65 | 286572 | 302461 18 | 67:12.62 | 4:01.02 | 302462 | 320538 19 | 71:13.64 | 5:05.29 | 320539 | 343442 20 | 76:19.18 | 3:38.05 | 343443 | 359797
Характеристики диапазона извлечения и сообщения об ошибках
Выбранный диапазон
Имя файла D:\VA - Золотые Баллады Шансона CD 3.wav
Пиковый уровень 100.0 % Скорость извлечения 2.1 X Качество диапазона 100.0 % CRC теста DA422690 CRC копии DA422690 Копирование... OK
Ошибок не произошло
AccurateRip: сводка
Трек 1 отсутствует в базе данныхТрек 2 отсутствует в базе данныхТрек 3 отсутствует в базе данныхТрек 4 отсутствует в базе данныхТрек 5 отсутствует в базе данныхТрек 6 отсутствует в базе данныхТрек 7 отсутствует в базе данныхТрек 8 отсутствует в базе данныхТрек 9 отсутствует в базе данныхТрек 10 отсутствует в базе данныхТрек 11 отсутствует в базе данныхТрек 12 отсутствует в базе данныхТрек 13 отсутствует в базе данныхТрек 14 отсутствует в базе данныхТрек 15 отсутствует в базе данныхТрек 16 отсутствует в базе данныхТрек 17 отсутствует в базе данныхТрек 18 отсутствует в базе данныхТрек 19 отсутствует в базе данныхТрек 20 отсутствует в базе данных
Ни одного трека нет в базе AccurateRip
Конец отчёта
---- CUETools DB Plugin V2.1.6
[CTDB TOCID: NpAENA5hy7XuB76pK8zJmUtm.2g-] disk not present in databaseSubmit result: The request was aborted: The request was canceled.
==== Контрольная сумма отчёта 0A9A13AA1D02ACE252E75BC1DC0A95BF222C873D2E97767D0FBF8653C08CFDCE ====

Содержание индексной карты (.CUE)

REM GENRE ШансонREM DATE 2003REM DISCID 3712BD14REM COMMENT "ExactAudioCopy v1.3"PERFORMER "VA "TITLE "Золотые Баллады Шансона CD 3"REM COMPOSER ""FILE "VA - Золотые Баллады Шансона CD 3.flac" WAVE TRACK 01 AUDIO TITLE "Белая тайга" PERFORMER "Катя Огонек" REM COMPOSER "" INDEX 01 00:00:00 TRACK 02 AUDIO TITLE "Романс" PERFORMER "Стас Белый" REM COMPOSER "" INDEX 01 04:41:01 TRACK 03 AUDIO TITLE "Тополиная аллея" PERFORMER "Виктор Петлюра" REM COMPOSER "" INDEX 01 08:57:06 TRACK 04 AUDIO TITLE "Дым от сигарет" PERFORMER "Эдуард Видный и Татьяна Тишинская" REM COMPOSER "" INDEX 01 12:10:11 TRACK 05 AUDIO TITLE "Судьба" PERFORMER "Бумеr " REM COMPOSER "" INDEX 01 15:52:14 TRACK 06 AUDIO TITLE "Старая фотография" PERFORMER "Михаил Гулько" REM COMPOSER "" INDEX 01 19:34:48 TRACK 07 AUDIO TITLE "Купола" PERFORMER "Жека" REM COMPOSER "" INDEX 01 22:43:24 TRACK 08 AUDIO TITLE "Эта женщина" PERFORMER "Сергей Любавин" REM COMPOSER "" INDEX 01 26:25:15 TRACK 09 AUDIO TITLE "Три дня" PERFORMER "Игорь Слуцкий" REM COMPOSER "" INDEX 01 30:43:70 TRACK 10 AUDIO TITLE "Тополь" PERFORMER "Воровайки " REM COMPOSER "" INDEX 01 34:07:30 TRACK 11 AUDIO TITLE "Достучаться до небес" PERFORMER "Александр Вестов" REM COMPOSER "" INDEX 01 39:29:30 TRACK 12 AUDIO TITLE "Красавчик" PERFORMER "Татьяна Тишинская " REM COMPOSER "" INDEX 01 44:05:66 TRACK 13 AUDIO TITLE "Не зови" PERFORMER "Анатолий Полотно" REM COMPOSER "" INDEX 01 46:26:19 TRACK 14 AUDIO TITLE "На востоке" PERFORMER "Леон Петросов" REM COMPOSER "" INDEX 01 52:06:25 TRACK 15 AUDIO TITLE "Белый ангел" PERFORMER "Михаил Шелег" REM COMPOSER "" INDEX 01 55:41:61 TRACK 16 AUDIO TITLE "Лето пьяное" PERFORMER "Виктория Цыганова" REM COMPOSER "" INDEX 01 59:40:66 TRACK 17 AUDIO TITLE "Осень-мулатка" PERFORMER "Сергей Север" REM COMPOSER "" INDEX 01 63:40:72 TRACK 18 AUDIO TITLE "Ночь" PERFORMER "Григорий Заречный " REM COMPOSER "" INDEX 01 67:12:62 TRACK 19 AUDIO TITLE "Журавли" PERFORMER "Сергей Гинзбург" REM COMPOSER "" INDEX 01 71:13:64 TRACK 20 AUDIO TITLE "Приходите в мой дом" PERFORMER " Михаил Круг" REM COMPOSER "" INDEX 01 76:19:18

CD4

1. Сергей Трофимов - Голуби
2. Иван Кучин - До свиданья, друг
3. Сергей Наговицын - Озоновый слой
4. Михаил Шуфутинский - Курочка
5. Ирина Круг и Михаил КРУГ - Моя королева
6. Александр Дюмин - Непрошенный гость
7. Виктор Королев - Околдуй меня
8. Катя Огонек - Я ревную тебя
9. Виктор Петлюра - Желтая роза
10. Бумеr - Когда уходят друзья
11. Михаил Гулько - Березы
12. Жека - Баллада о первом встречном
13. Сергей Любавин - Звезда ненаглядная
14. Игорь Слуцкий - Когда я уйду
15. Воровайки - Потерялись ключи
16. Александр Вестов - Бог и она
17. Татьяна Тишинская - Поздняя любовь
18. Анатолий Полотно и Федя Карманов - Прощальная
19. Михаил Шелег - Кафе неудачников
20. Сергей Север - Я пою
Продолжительность: 01:20:03

Отчёт EAC

Exact Audio Copy V1.3 from 2. September 2016
Отчёт EAC об извлечении, выполненном 17. июня 2018, 14:17
VA / Золотые Баллады Шансона CD4
Дисковод: HL-DT-STDVDRAM GH24NSB0 Adapter: 1 ID: 0
Режим чтения : ДостоверностьИспользование точного потока : ДаОтключение кэша аудио : ДаИспользование указателей C2 : Нет
Коррекция смещения при чтении : 6Способность читать области Lead-in и Lead-out : НетЗаполнение пропущенных сэмплов тишиной : ДаУдаление блоков с тишиной в начале и конце : НетПри вычислениях CRC использовались нулевые сэмплы : ДаИнтерфейс : Встроенный Win32-интерфейс для Win NT/2000
Выходной формат : Пользовательский кодировщикВыбранный битрейт : 768 kBit/sКачество : ВысокийДобавление ID3-тега : НетУтилита сжатия : C:\Program Files\Exact Audio Copy\FLAC\FLAC.EXEДополнительные параметры : -6 -V -T "ARTIST=%artist%" -T "TITLE=%title%" -T "ALBUM=%albumtitle%" -T "DATE=%year%" -T "TRACKNUMBER=%tracknr%" -T "GENRE=%genre%" -T "COMMENT=%comment%" -T "BAND=%albuminterpret%" -T "ALBUMARTIST=%albuminterpret%" -T "COMPOSER=%composer%" %haslyrics%--tag-from-file=LYRICS="%lyricsfile%"%haslyrics% -T "DISCNUMBER=%cdnumber%" -T "TOTALDISCS=%totalcds%" -T "TOTALTRACKS=%numtracks%" %hascover%--picture="%coverfile%"%hascover% %source% -o %dest%
TOC извлечённого CD
Трек | Старт | Длительность | Начальный сектор | Конечный сектор --------------------------------------------------------------------- 1 | 0:00.00 | 4:09.17 | 0 | 18691 2 | 4:09.17 | 3:53.02 | 18692 | 36168 3 | 8:02.19 | 5:38.03 | 36169 | 61521 4 | 13:40.22 | 3:25.06 | 61522 | 76902 5 | 17:05.28 | 3:50.65 | 76903 | 94217 6 | 20:56.18 | 3:39.06 | 94218 | 110648 7 | 24:35.24 | 4:12.19 | 110649 | 129567 8 | 28:47.43 | 4:30.21 | 129568 | 149838 9 | 33:17.64 | 4:15.24 | 149839 | 168987 10 | 37:33.13 | 3:33.57 | 168988 | 185019 11 | 41:06.70 | 3:21.06 | 185020 | 200100 12 | 44:28.01 | 4:33.06 | 200101 | 220581 13 | 49:01.07 | 3:43.37 | 220582 | 237343 14 | 52:44.44 | 3:52.30 | 237344 | 254773 15 | 56:36.74 | 3:15.70 | 254774 | 269468 16 | 59:52.69 | 3:56.09 | 269469 | 287177 17 | 63:49.03 | 3:37.25 | 287178 | 303477 18 | 67:26.28 | 4:34.05 | 303478 | 324032 19 | 72:00.33 | 4:27.56 | 324033 | 344113 20 | 76:28.14 | 3:34.40 | 344114 | 360203
Характеристики диапазона извлечения и сообщения об ошибках
Выбранный диапазон
Имя файла D:\VA - Золотые Баллады Шансона CD4.wav
Пиковый уровень 100.0 % Скорость извлечения 2.0 X Качество диапазона 99.9 % CRC теста FBC6DD55 CRC копии FBC6DD55 Копирование... OK
Ошибок не произошло
AccurateRip: сводка
Трек 1 отсутствует в базе данныхТрек 2 отсутствует в базе данныхТрек 3 отсутствует в базе данныхТрек 4 отсутствует в базе данныхТрек 5 отсутствует в базе данныхТрек 6 отсутствует в базе данныхТрек 7 отсутствует в базе данныхТрек 8 отсутствует в базе данныхТрек 9 отсутствует в базе данныхТрек 10 отсутствует в базе данныхТрек 11 отсутствует в базе данныхТрек 12 отсутствует в базе данныхТрек 13 отсутствует в базе данныхТрек 14 отсутствует в базе данныхТрек 15 отсутствует в базе данныхТрек 16 отсутствует в базе данныхТрек 17 отсутствует в базе данныхТрек 18 отсутствует в базе данныхТрек 19 отсутствует в базе данныхТрек 20 отсутствует в базе данных
Ни одного трека нет в базе AccurateRip
Конец отчёта
---- CUETools DB Plugin V2.1.6
[CTDB TOCID: AA.tXS0kdgL49j7M_E35E1WIB5w-] disk not present in databaseSubmit result: The request was aborted: The request was canceled.
==== Контрольная сумма отчёта 5EDEA7617DF7AF3E8F0CBD8EAF4B6B7595A956EDE519BEF2860EB6B1443CAD80 ====

Содержание индексной карты (.CUE)

REM GENRE ШансонREM DATE 2003REM DISCID 3E12C214REM COMMENT "ExactAudioCopy v1.3"PERFORMER "VA"TITLE "Золотые Баллады Шансона CD4"REM COMPOSER ""FILE "VA - Золотые Баллады Шансона CD4.flac" WAVE TRACK 01 AUDIO TITLE "Голуби" PERFORMER " Сергей Трофимов" REM COMPOSER "" INDEX 01 00:00:00 TRACK 02 AUDIO TITLE "До свиданья, друг" PERFORMER "Иван Кучин" REM COMPOSER "" INDEX 01 04:09:17 TRACK 03 AUDIO TITLE "Озоновый слой" PERFORMER "Сергей Наговицын" REM COMPOSER "" INDEX 01 08:02:19 TRACK 04 AUDIO TITLE "Курочка" PERFORMER "Михаил Шуфутинский" REM COMPOSER "" INDEX 01 13:40:22 TRACK 05 AUDIO TITLE "Моя королева" PERFORMER "Ирина Круг и Михаил КРУГ" REM COMPOSER "" INDEX 01 17:05:28 TRACK 06 AUDIO TITLE "Непрошенный гость" PERFORMER "Александр Дюмин" REM COMPOSER "" INDEX 01 20:56:18 TRACK 07 AUDIO TITLE "Околдуй меня" PERFORMER "Виктор Королев" REM COMPOSER "" INDEX 01 24:35:24 TRACK 08 AUDIO TITLE "Я ревную тебя" PERFORMER "Катя Огонек" REM COMPOSER "" INDEX 01 28:47:43 TRACK 09 AUDIO TITLE "Желтая роза" PERFORMER "Виктор Петлюра" REM COMPOSER "" INDEX 01 33:17:64 TRACK 10 AUDIO TITLE "Когда уходят друзья" PERFORMER "Бумеr" REM COMPOSER "" INDEX 01 37:33:13 TRACK 11 AUDIO TITLE "Березы" PERFORMER "Михаил Гулько " REM COMPOSER "" INDEX 01 41:06:70 TRACK 12 AUDIO TITLE "Баллада о первом встречном" PERFORMER "Жека" REM COMPOSER "" INDEX 01 44:28:01 TRACK 13 AUDIO TITLE "Звезда ненаглядная" PERFORMER "Сергей Любавин" REM COMPOSER "" INDEX 01 49:01:07 TRACK 14 AUDIO TITLE "Когда я уйду" PERFORMER "Игорь Слуцкий" REM COMPOSER "" INDEX 01 52:44:44 TRACK 15 AUDIO TITLE " Потерялись ключи" PERFORMER "Воровайки" REM COMPOSER "" INDEX 01 56:36:74 TRACK 16 AUDIO TITLE "Бог и она" PERFORMER "Александр Вестов " REM COMPOSER "" INDEX 01 59:52:69 TRACK 17 AUDIO TITLE "Поздняя любовь" PERFORMER "Татьяна Тишинская" REM COMPOSER "" INDEX 01 63:49:03 TRACK 18 AUDIO TITLE "Прощальная" PERFORMER "Анатолий Полотно и Федя Карманов" REM COMPOSER "" INDEX 01 67:26:28 TRACK 19 AUDIO TITLE "Кафе неудачников" PERFORMER "Михаил Шелег" REM COMPOSER "" INDEX 01 72:00:33 TRACK 20 AUDIO TITLE "Я пою" PERFORMER "Сергей Север" REM COMPOSER "" INDEX 01 76:28:14

CD5

1. Григорий Заречный - Снег
2. Михаил Круг - Прогулка с месяцем
3. Сергей Трофимов - Колыбельная для России
4. Иван Кучин - Изба
5. Сергей Наговицын - Разбитая судьба
6. Ирина Круг и Михаил Круг - Тебе, моя последняя любовь
7. Александр Дюмин - Аленка
8. Виктор Королев и Ольга Стельмах - Обручальное колечко
9. Виктор Петлюра - Берег
10. Бумеr - Не предавай меня, любовь
11. Михаил Гулько - Мой дед убит в 37-м
12. Жека - Притяжение души
13. Сергей Любавин - Украду тебя
14. Игорь Слуцкий и Виктория Цыганова - Еще не кончилось лето
15. Воровайки - Весточки из далеких мест
16. Михаил Шелег - Любимой женщине
17. Сергей Наговицын - Прохор Митрич
18. Анатолий Полотно - По Дону
19. Катя Огонек - Браслетик
20. Сергей Север - Летают снежинки
Продолжительность: 01:20:24

Отчёт EAC

Exact Audio Copy V1.3 from 2. September 2016
Отчёт EAC об извлечении, выполненном 17. июня 2018, 19:52
VA / Золотые Баллады Шансона CD5
Дисковод: HL-DT-STDVDRAM GH24NSB0 Adapter: 1 ID: 0
Режим чтения : ДостоверностьИспользование точного потока : ДаОтключение кэша аудио : ДаИспользование указателей C2 : Нет
Коррекция смещения при чтении : 6Способность читать области Lead-in и Lead-out : НетЗаполнение пропущенных сэмплов тишиной : ДаУдаление блоков с тишиной в начале и конце : НетПри вычислениях CRC использовались нулевые сэмплы : ДаИнтерфейс : Встроенный Win32-интерфейс для Win NT/2000
Выходной формат : Пользовательский кодировщикВыбранный битрейт : 768 kBit/sКачество : ВысокийДобавление ID3-тега : НетУтилита сжатия : C:\Program Files\Exact Audio Copy\FLAC\FLAC.EXEДополнительные параметры : -6 -V -T "ARTIST=%artist%" -T "TITLE=%title%" -T "ALBUM=%albumtitle%" -T "DATE=%year%" -T "TRACKNUMBER=%tracknr%" -T "GENRE=%genre%" -T "COMMENT=%comment%" -T "BAND=%albuminterpret%" -T "ALBUMARTIST=%albuminterpret%" -T "COMPOSER=%composer%" %haslyrics%--tag-from-file=LYRICS="%lyricsfile%"%haslyrics% -T "DISCNUMBER=%cdnumber%" -T "TOTALDISCS=%totalcds%" -T "TOTALTRACKS=%numtracks%" %hascover%--picture="%coverfile%"%hascover% %source% -o %dest%
TOC извлечённого CD
Трек | Старт | Длительность | Начальный сектор | Конечный сектор --------------------------------------------------------------------- 1 | 0:00.00 | 5:19.18 | 0 | 23942 2 | 5:19.18 | 3:21.06 | 23943 | 39023 3 | 8:40.24 | 3:17.05 | 39024 | 53803 4 | 11:57.29 | 4:09.33 | 53804 | 72511 5 | 16:06.62 | 6:01.04 | 72512 | 99590 6 | 22:07.66 | 2:58.21 | 99591 | 112961 7 | 25:06.12 | 4:01.06 | 112962 | 131042 8 | 29:07.18 | 2:58.21 | 131043 | 144413 9 | 32:05.39 | 4:35.05 | 144414 | 165043 10 | 36:40.44 | 3:49.65 | 165044 | 182283 11 | 40:30.34 | 3:21.06 | 182284 | 197364 12 | 43:51.40 | 4:35.09 | 197365 | 217998 13 | 48:26.49 | 3:39.06 | 217999 | 234429 14 | 52:05.55 | 3:14.06 | 234430 | 248985 15 | 55:19.61 | 3:12.05 | 248986 | 263390 16 | 58:31.66 | 4:14.12 | 263391 | 282452 17 | 62:46.03 | 5:25.07 | 282453 | 306834 18 | 68:11.10 | 4:51.70 | 306835 | 328729 19 | 73:03.05 | 3:22.06 | 328730 | 343885 20 | 76:25.11 | 3:58.07 | 343886 | 361742
Характеристики диапазона извлечения и сообщения об ошибках
Выбранный диапазон
Имя файла D:\CD5\VA - Золотые Баллады Шансона CD5.wav
Пиковый уровень 100.0 % Скорость извлечения 2.1 X Качество диапазона 100.0 % CRC теста 5C2F6500 CRC копии 5C2F6500 Копирование... OK
Ошибок не произошло
AccurateRip: сводка
Трек 1 отсутствует в базе данныхТрек 2 отсутствует в базе данныхТрек 3 отсутствует в базе данныхТрек 4 отсутствует в базе данныхТрек 5 отсутствует в базе данныхТрек 6 отсутствует в базе данныхТрек 7 отсутствует в базе данныхТрек 8 отсутствует в базе данныхТрек 9 отсутствует в базе данныхТрек 10 отсутствует в базе данныхТрек 11 отсутствует в базе данныхТрек 12 отсутствует в базе данныхТрек 13 отсутствует в базе данныхТрек 14 отсутствует в базе данныхТрек 15 отсутствует в базе данныхТрек 16 отсутствует в базе данныхТрек 17 отсутствует в базе данныхТрек 18 отсутствует в базе данныхТрек 19 отсутствует в базе данныхТрек 20 отсутствует в базе данных
Ни одного трека нет в базе AccurateRip
Конец отчёта
---- CUETools DB Plugin V2.1.6
[CTDB TOCID: CkH60DVrenO31xWuj_S0qlcr1SY-] foundSubmit result: The underlying connection was closed: A connection that was expected to be kept alive was closed by the server.Track | CTDB Status 1 | (1/1) Accurately ripped 2 | (1/1) Accurately ripped 3 | (1/1) Accurately ripped 4 | (1/1) Accurately ripped 5 | (1/1) Accurately ripped 6 | (1/1) Accurately ripped 7 | (1/1) Accurately ripped 8 | (1/1) Accurately ripped 9 | (1/1) Accurately ripped 10 | (1/1) Accurately ripped 11 | (1/1) Accurately ripped 12 | (1/1) Accurately ripped 13 | (1/1) Accurately ripped 14 | (1/1) Accurately ripped 15 | (1/1) Accurately ripped 16 | (1/1) Accurately ripped 17 | (1/1) Accurately ripped 18 | (1/1) Accurately ripped 19 | (1/1) Accurately ripped 20 | (1/1) Accurately ripped
==== Контрольная сумма отчёта 3A27C57A61AE1FA7D78443705B55EB4D26A64299C28044C953C4512E5FED3A1F ====

Содержание индексной карты (.CUE)

REM GENRE ШансонREM DATE 2003REM DISCID 2712D714REM COMMENT "ExactAudioCopy v1.3"PERFORMER "VA "TITLE " Золотые Баллады Шансона CD5"REM COMPOSER ""FILE "VA - Золотые Баллады Шансона CD5.flac" WAVE TRACK 01 AUDIO TITLE "Снег" PERFORMER " Григорий Заречный" REM COMPOSER "" INDEX 01 00:00:00 TRACK 02 AUDIO TITLE "Прогулка с месяцем" PERFORMER "Михаил Круг" REM COMPOSER "" INDEX 01 05:19:18 TRACK 03 AUDIO TITLE "Колыбельная для России" PERFORMER "Сергей Трофимов" REM COMPOSER "" INDEX 01 08:40:24 TRACK 04 AUDIO TITLE "Изба" PERFORMER "Иван Кучин " REM COMPOSER "" INDEX 01 11:57:29 TRACK 05 AUDIO TITLE "Разбитая судьба" PERFORMER "Сергей Наговицын" REM COMPOSER "" INDEX 01 16:06:62 TRACK 06 AUDIO TITLE "Тебе, моя последняя любовь" PERFORMER "Ирина Круг и Михаил Круг " REM COMPOSER "" INDEX 01 22:07:66 TRACK 07 AUDIO TITLE "Аленка" PERFORMER "Александр Дюмин" REM COMPOSER "" INDEX 01 25:06:12 TRACK 08 AUDIO TITLE "Обручальное колечко" PERFORMER "Виктор Королев и Ольга Стельмах" REM COMPOSER "" INDEX 01 29:07:18 TRACK 09 AUDIO TITLE "Берег" PERFORMER "Виктор Петлюра" REM COMPOSER "" INDEX 01 32:05:39 TRACK 10 AUDIO TITLE "Не предавай меня, любовь" PERFORMER "Бумеr " REM COMPOSER "" INDEX 01 36:40:44 TRACK 11 AUDIO TITLE "Мой дед убит в 37-м" PERFORMER "Михаил Гулько" REM COMPOSER "" INDEX 01 40:30:34 TRACK 12 AUDIO TITLE "Притяжение души" PERFORMER "Жека" REM COMPOSER "" INDEX 01 43:51:40 TRACK 13 AUDIO TITLE "Украду тебя" PERFORMER "Сергей Любавин" REM COMPOSER "" INDEX 01 48:26:49 TRACK 14 AUDIO TITLE "Еще не кончилось лето" PERFORMER "Игорь Слуцкий и Виктория Цыганова" REM COMPOSER "" INDEX 01 52:05:55 TRACK 15 AUDIO TITLE "Весточки из далеких мест" PERFORMER "Воровайки" REM COMPOSER "" INDEX 01 55:19:61 TRACK 16 AUDIO TITLE "Любимой женщине" PERFORMER "Михаил Шелег" REM COMPOSER "" INDEX 01 58:31:66 TRACK 17 AUDIO TITLE " Прохор Митрич" PERFORMER "Сергей Наговицын" REM COMPOSER "" INDEX 01 62:46:03 TRACK 18 AUDIO TITLE "По Дону" PERFORMER "Анатолий Полотно " REM COMPOSER "" INDEX 01 68:11:10 TRACK 19 AUDIO TITLE "Браслетик" PERFORMER "Катя Огонек" REM COMPOSER "" INDEX 01 73:03:05 TRACK 20 AUDIO TITLE "Летают снежинки" PERFORMER " Сергей Север" REM COMPOSER "" INDEX 01 76:25:11


[galltoto.com]_t_5573989.torrent
Торрент: Зарегистрирован ·  [ 2019-01-05 13:55 ] ·  90a1e41e63ee24e56677ad7a4ed02dfae2f9e7fe

16 KB

Статус: проверено
Скачан: 0 раз
Размер: 2.62 GB
Оценка: 
(Голосов: 0)
Сказали спасибо: 0  Спасибо
Похожие темы
[Профиль]    [ЛС]
Показать сообщения:    
Ответить на тему

Текущее время: Сегодня 13:28

Часовой пояс: GMT + 7



Вы не можете начинать темы
Вы не можете отвечать на сообщения
Вы не можете редактировать свои сообщения
Вы не можете удалять свои сообщения
Вы не можете голосовать в опросах
Вы не можете прикреплять файлы к сообщениям
Вы можете скачивать файлы


Blouson de quart Marine Nationale kaki (reproduction) | 3DS - ROM Hacking, Translations and Utilities | DOWNLOAD