(Шансон) [CD] Александр Звинцов - Долгая зима - 2001, FLAC (image+.cue), lossless

Ответить на тему
Статистика раздачи [Обновить пиров]
Размер:  352 MB   |    Зарегистрирован:  13 дней   |    Скачан:  0 раз

Полного источника не было: Никогда

 
   
 
 
 
Автор Сообщение

galltoto.com

Создавать темы 05-Янв-2019 14:45

[Цитировать]

Александр Звинцов / Долгая зима
Жанр: Шансон
Носитель: CD
Страна-производитель диска (релиза): Украина
Год издания: 2001
Издатель (лейбл): Boom records
Номер по каталогу: 05281000-BOOM-05
Страна исполнителя (группы): Россия
Аудиокодек: FLAC (*.flac)
Тип рипа: image+.cue
Битрейт аудио: lossless
Продолжительность: 48:09
Источник (релизер): [url=profile.php?mode=viewprofile&u=12173762]vlad victorovich[/url]
Наличие сканов в содержимом раздачи: да
Треклист:
01. Я по новой арестован (3:46)
02. Самара (3:57)
03. Маня (4:15)
04. Долгая зима (6:00)
05. Ни гвоздя, ни жезла (2:56)
06. Где-то там (3:55)
07. Вагон (3:45)
08. Кастет (4:39)
09. Пацаны (4:18)
10. Как же вдруг (3:30)
11. Ресторан (3:49)
12. Охота (3:21)

Лог создания рипа

Exact Audio Copy V1.1 from 23. June 2015
Отчёт EAC об извлечении, выполненном 22. марта 2018, 14:55
Александр Звинцов / Долгая зима
Дисковод: HL-DT-STDVD+-RW GT60N Adapter: 1 ID: 0
Режим чтения : ДостоверностьИспользование точного потока : ДаОтключение кэша аудио : ДаИспользование указателей C2 : Нет
Коррекция смещения при чтении : 103Способность читать области Lead-in и Lead-out : НетЗаполнение пропущенных сэмплов тишиной : ДаУдаление блоков с тишиной в начале и конце : НетПри вычислениях CRC использовались нулевые сэмплы : ДаИнтерфейс : Встроенный Win32-интерфейс для Win NT/2000
Выходной формат : Внутренние WAV-операцииФормат файла сэмплов : 44.100 Гц; 16 бит; стерео
TOC извлечённого CD
Трек | Старт | Длительность | Начальный сектор | Конечный сектор --------------------------------------------------------------------- 1 | 0:00.00 | 3:45.39 | 0 | 16913 2 | 3:45.39 | 3:56.64 | 16914 | 34677 3 | 7:42.28 | 4:15.11 | 34678 | 53813 4 | 11:57.39 | 6:00.15 | 53814 | 80828 5 | 17:57.54 | 2:55.62 | 80829 | 94015 6 | 20:53.41 | 3:54.61 | 94016 | 111626 7 | 24:48.27 | 3:44.51 | 111627 | 128477 8 | 28:33.03 | 4:39.01 | 128478 | 149403 9 | 33:12.04 | 4:18.16 | 149404 | 168769 10 | 37:30.20 | 3:29.55 | 168770 | 184499 11 | 41:00.00 | 3:48.65 | 184500 | 201664 12 | 44:48.65 | 3:20.47 | 201665 | 216711
Характеристики диапазона извлечения и сообщения об ошибках
Выбранный диапазон
Имя файла C:\vlad victorovich\Александр Звинцов - Долгая зима.wav
Пиковый уровень 100.0 % Скорость извлечения 2.0 X Качество диапазона 100.0 % CRC теста E72F7E16 CRC копии E72F7E16 Копирование... OK
Ошибок не произошло
AccurateRip: сводка
Трек 1 отсутствует в базе данныхТрек 2 отсутствует в базе данныхТрек 3 отсутствует в базе данныхТрек 4 отсутствует в базе данныхТрек 5 отсутствует в базе данныхТрек 6 отсутствует в базе данныхТрек 7 отсутствует в базе данныхТрек 8 отсутствует в базе данныхТрек 9 отсутствует в базе данныхТрек 10 отсутствует в базе данныхТрек 11 отсутствует в базе данныхТрек 12 отсутствует в базе данных
Ни одного трека нет в базе AccurateRip
Конец отчёта
---- CUETools DB Plugin V2.1.6
[CTDB TOCID: H95g69AdqDsn9KdIpMtPFb1dcco-] disk not present in databaseSubmit result: H95g69AdqDsn9KdIpMtPFb1dcco- has been uploaded
==== Контрольная сумма отчёта 64FDE47F9AA9B968E509CFF1FED22BABCA4D6093E67BA57A8DFA1C775B74CB3A ====

Скриншот спектра частот


Диск из личной коллекции!
Рип снят в режиме Test&Copy + сканы обложек и диска 600 dpi !!!
Приятного Всем прослушивания!


[galltoto.com]_t_5537928.torrent
Торрент: Зарегистрирован ·  [ 2019-01-05 13:55 ] ·  80419164817760161839b6f455d9e923a26175a0

15 KB

Статус: проверено
Скачан: 0 раз
Размер: 352 MB
Оценка: 
(Голосов: 0)
Сказали спасибо: 0  Спасибо
Похожие темы
[Профиль]    [ЛС]
Показать сообщения:    
Ответить на тему

Текущее время: Сегодня 13:28

Часовой пояс: GMT + 7



Вы не можете начинать темы
Вы не можете отвечать на сообщения
Вы не можете редактировать свои сообщения
Вы не можете удалять свои сообщения
Вы не можете голосовать в опросах
Вы не можете прикреплять файлы к сообщениям
Вы можете скачивать файлы


Pertinence | 商务合作 | Musica 6