(Chanson) [CD] Александр Тафинцев и Сергей Никитин - Трамвай номер 3 - 2018, FLAC (image+.cue), lossless

Ответить на тему
Статистика раздачи [Обновить пиров]
Размер:  443 MB   |    Зарегистрирован:  14 дней   |    Скачан:  0 раз

Полного источника не было: Никогда

 
   
 
 
 
Автор Сообщение

galltoto.com

Создавать темы 05-Янв-2019 14:45

[Цитировать]

Александр Тафинцев и Сергей Никитин / Трамвай номер 3
Жанр: Chanson
Носитель: CD
Страна-производитель диска (релиза): Россия
Год издания: 2018
Издатель (лейбл): Студия Маркел
Страна исполнителя (группы): Россия
Аудиокодек: FLAC (*.flac)
Тип рипа: image+.cue
Битрейт аудио: lossless
Продолжительность: 00:58:57
Источник (релизер): dzabal
Наличие сканов в содержимом раздачи: да
Треклист:
01.Трамвай номер 3
02.У друга Лёхи днюха
03.Падал белый снег
04.Бабье лето
05.Водитель Газели
06.Батушка Дон
07.Выйду в поле
08.До пенсии
09.Не грустите мальчики
10.Отпинала
11.Мой Людок
12.Мы на лодочке катались
13.Василина
14.Балалаечка моя
Музыка : А.Тафинцев, народная (09)
Слова : А.Тафинцев

Лог создания рипа

Exact Audio Copy V1.0 beta 3 from 29. August 2011
Отчёт EAC об извлечении, выполненном 28. декабря 2018, 13:59
Александр Тафинцев и Сергей Никитин / Трамвай номер 3
Дисковод: HL-DT-STDVDRAM GH22NS70 Adapter: 2 ID: 0
Режим чтения : ДостоверностьИспользование точного потока : ДаОтключение кэша аудио : ДаИспользование указателей C2 : Нет
Коррекция смещения при чтении : 667Способность читать области Lead-in и Lead-out : НетЗаполнение пропущенных сэмплов тишиной : ДаУдаление блоков с тишиной в начале и конце : НетПри вычислениях CRC использовались нулевые сэмплы : ДаИнтерфейс : Встроенный Win32-интерфейс для Win NT/2000
Выходной формат : Внутренние WAV-операцииФормат файла сэмплов : 44.100 Гц; 16 бит; стерео
TOC извлечённого CD
Трек | Старт | Длительность | Начальный сектор | Конечный сектор --------------------------------------------------------------------- 1 | 0:00.00 | 4:36.52 | 0 | 20751 2 | 4:36.52 | 3:16.19 | 20752 | 35470 3 | 7:52.71 | 4:44.30 | 35471 | 56800 4 | 12:37.26 | 4:29.15 | 56801 | 76990 5 | 17:06.41 | 4:02.30 | 76991 | 95170 6 | 21:08.71 | 4:36.62 | 95171 | 115932 7 | 25:45.58 | 4:02.21 | 115933 | 134103 8 | 29:48.04 | 3:44.00 | 134104 | 150903 9 | 33:32.04 | 3:50.37 | 150904 | 168190 10 | 37:22.41 | 4:01.13 | 168191 | 186278 11 | 41:23.54 | 4:02.03 | 186279 | 204431 12 | 45:25.57 | 3:55.50 | 204432 | 222106 13 | 49:21.32 | 4:27.56 | 222107 | 242187 14 | 53:49.13 | 5:08.53 | 242188 | 265340
Характеристики диапазона извлечения и сообщения об ошибках
Выбранный диапазон
Имя файла G:\Александр Тафинцев и Сергей Никитин - Трамвай номер 3.wav
Пиковый уровень 100.0 % Скорость извлечения 2.0 X Качество диапазона 100.0 % CRC теста FF074465 CRC копии FF074465 Копирование... OK
Ошибок не произошло
Конец отчёта
==== Контрольная сумма отчёта FC5A670F933AF8589BFF8BEC8BEB12F2E0DC0C618F666DA01168B0ABF5B860CD ====

Об исполнителе (группе)

http://www.realmusic.ru/id235085/

Состав

Гитара : А.Самойлов (01, 11).


[galltoto.com]_t_5666180.torrent
Торрент: Зарегистрирован ·  [ 2019-01-05 13:55 ] ·  3e3924b498f2e1c70839011607560e7f8d8bfe1d

19 KB

Статус: проверено
Скачан: 0 раз
Размер: 443 MB
Оценка: 
(Голосов: 0)
Сказали спасибо: 0  Спасибо
Похожие темы
[Профиль]    [ЛС]
Показать сообщения:    
Ответить на тему

Текущее время: Сегодня 14:01

Часовой пояс: GMT + 7



Вы не можете начинать темы
Вы не можете отвечать на сообщения
Вы не можете редактировать свои сообщения
Вы не можете удалять свои сообщения
Вы не можете голосовать в опросах
Вы не можете прикреплять файлы к сообщениям
Вы можете скачивать файлы


JF247 WKT Nouveau Scintillant Fleur Geometic Forme Pendentif Avec Haute Qualité CZ Micro Pave Pour Bijoux De Mode De Décision Pendentif | Hot 14in1 60W 110V Electric Soldering Iron Tools Kit Stand Desoldering Pump Set | Gelcoat Gris de finition / Topcoat 5KG