(Шансон) Валерий Петеримов и группа «Чёрная Сотня» - Последний колокол - 1997, FLAC (image+.cue), lossless

Ответить на тему
Статистика раздачи [Обновить пиров]
Размер:  681 MB   |    Зарегистрирован:  14 дней   |    Скачан:  0 раз

Полного источника не было: Никогда

 
   
 
 
 
Автор Сообщение

galltoto.com

Создавать темы 05-Янв-2019 14:45

[Цитировать]

Валерий Петеримов и группа «Чёрная Сотня»- Жанр: Шансон
Страна-производитель диска (релиза): Россия
Год издания: 1997
Страна исполнителя (группы): Россия
Аудиокодек: FLAC (*.flac)
Тип рипа: image+.cue
Битрейт аудио: lossless
Продолжительность: 01:38:09
Источник (релизер): [url=profile.php?mode=viewprofile&u=22110310]shansonchik[/url]
Наличие сканов в содержимом раздачи: да

CD 1Треклист

-01 - [07:15] Суки
02 - [05:24] Был день
03 - [03:22] С Днём рождения, милая
04 - [04:17] Каждый выбрал свой путь
05 - [05:15] А в твоих глазах
06 - [04:36] Ветка
07 - [04:58] Костерок любви
08 - [06:04] Сломанная зона
09 - [04:14] Ночь укроет нас своим платком
10 - [08:14] Колокол
-

Лог создания рипа

Exact Audio Copy V1.0 beta 4 from 7. December 2014
Отчёт EAC об извлечении, выполненном 18. января 2015, 0:26
Валерий Петеримов и группа «Чёрная Сотня» / Последний колокол
Дисковод: HL-DT-STDVDRAM GU71N Adapter: 1 ID: 0
Режим чтения : Достоверность
Использование точного потока : Да
Отключение кэша аудио : Да
Использование указателей C2 : Нет
Коррекция смещения при чтении : 6
Способность читать области Lead-in и Lead-out : Нет
Заполнение пропущенных сэмплов тишиной : Да
Удаление блоков с тишиной в начале и конце : Нет
При вычислениях CRC использовались нулевые сэмплы : Да
Интерфейс : Встроенный Win32-интерфейс для Win NT/2000
Выходной формат : Пользовательский кодировщик
Выбранный битрейт : 128 kBit/s
Качество : Высокий
Добавление ID3-тега : Нет
Утилита сжатия : C:\Program Files\Exact Audio Copy\Flac\flac.exe
Дополнительные параметры : -V -8 -T "Date=%year%" -T "Genre=%genre%" %source%
TOC извлечённого CD
Трек | Старт | Длительность | Начальный сектор | Конечный сектор
---------------------------------------------------------------------
1 | 0:00.00 | 7:15.30 | 0 | 32654
2 | 7:15.30 | 5:24.73 | 32655 | 57027
3 | 12:40.28 | 3:22.36 | 57028 | 72213
4 | 16:02.64 | 4:17.34 | 72214 | 91522
5 | 20:20.23 | 5:15.73 | 91523 | 115220
6 | 25:36.21 | 4:36.17 | 115221 | 135937
7 | 30:12.38 | 4:58.21 | 135938 | 158308
8 | 35:10.59 | 6:04.34 | 158309 | 185642
9 | 41:15.18 | 4:14.73 | 185643 | 204765
10 | 45:30.16 | 8:14.14 | 204766 | 241829
Характеристики диапазона извлечения и сообщения об ошибках
Выбранный диапазон
Имя файла E:\Валерий Петеримов и группа «Чёрная Сотня» - Последний колокол (1997)\CD 1\Валерий Петеримов и группа «Чёрная Сотня» - Последний колокол.wav
Пиковый уровень 82.0 %
Скорость извлечения 4.8 X
Качество диапазона 99.9 %
CRC теста 7E4BC0BC
CRC копии 7E4BC0BC
Копирование... OK
Ошибок не произошло
Конец отчёта
==== Контрольная сумма отчёта 1D7323437C17FB60A7DD24D5FDB6057334AF2B7020859B3733662B7C1C246EC9 ====

CD 2Треклист

-11 - [04:57] Марина
12 - [07:22] Кабак
13 - [04:40] Май
14 - [03:44] Зона молчит
15 - [06:42] Знаю, ты меня уже не ждёшь
16 - [03:56] Брату
17 - [04:35] Что же будет дальше
18 - [05:14] Белая река
-

Лог создания рипа

Exact Audio Copy V1.0 beta 4 from 7. December 2014
Отчёт EAC об извлечении, выполненном 18. января 2015, 0:51
Валерий Петеримов и группа «Чёрная Сотня» / Последний колокол
Дисковод: HL-DT-STDVDRAM GU71N Adapter: 1 ID: 0
Режим чтения : Достоверность
Использование точного потока : Да
Отключение кэша аудио : Да
Использование указателей C2 : Нет
Коррекция смещения при чтении : 6
Способность читать области Lead-in и Lead-out : Нет
Заполнение пропущенных сэмплов тишиной : Да
Удаление блоков с тишиной в начале и конце : Нет
При вычислениях CRC использовались нулевые сэмплы : Да
Интерфейс : Встроенный Win32-интерфейс для Win NT/2000
Выходной формат : Пользовательский кодировщик
Выбранный битрейт : 128 kBit/s
Качество : Высокий
Добавление ID3-тега : Нет
Утилита сжатия : C:\Program Files\Exact Audio Copy\Flac\flac.exe
Дополнительные параметры : -V -8 -T "Date=%year%" -T "Genre=%genre%" %source%
TOC извлечённого CD
Трек | Старт | Длительность | Начальный сектор | Конечный сектор
---------------------------------------------------------------------
1 | 0:00.00 | 4:57.18 | 0 | 22292
2 | 4:57.18 | 7:22.57 | 22293 | 55499
3 | 12:20.00 | 4:40.60 | 55500 | 76559
4 | 17:00.60 | 3:44.08 | 76560 | 93367
5 | 20:44.68 | 6:42.02 | 93368 | 123519
6 | 27:26.70 | 3:56.23 | 123520 | 141242
7 | 31:23.18 | 4:35.17 | 141243 | 161884
8 | 35:58.35 | 5:14.23 | 161885 | 185457
9 | 41:12.58 | 3:12.54 | 185458 | 199911
Характеристики диапазона извлечения и сообщения об ошибках
Выбранный диапазон
Имя файла E:\Валерий Петеримов и группа «Чёрная Сотня» - Последний колокол (1997)\CD 2\Валерий Петеримов и группа «Чёрная Сотня» - Последний колокол.wav
Пиковый уровень 82.0 %
Скорость извлечения 4.6 X
Качество диапазона 100.0 %
CRC теста 0C941731
CRC копии 0C941731
Копирование... OK
Ошибок не произошло
Конец отчёта
==== Контрольная сумма отчёта 7D054110532FEE2E9A9FDB56727ED2331D4A8B4A8D9E42C662540EEB93B5DE96 ====
P.S. - песню под номером "19. Твоё письмо" поёт не Валерий Петеримов.


[galltoto.com]_t_4917881.torrent
Торрент: Зарегистрирован ·  [ 2019-01-05 13:55 ] ·  bfc493d642a666e6e191898d9bc6d530e70e01e2

15 KB

Статус: проверено
Скачан: 0 раз
Размер: 681 MB
Оценка: 
(Голосов: 0)
Сказали спасибо: 0  Спасибо
Похожие темы
[Профиль]    [ЛС]
Показать сообщения:    
Ответить на тему

Текущее время: Сегодня 13:58

Часовой пояс: GMT + 7



Вы не можете начинать темы
Вы не можете отвечать на сообщения
Вы не можете редактировать свои сообщения
Вы не можете удалять свои сообщения
Вы не можете голосовать в опросах
Вы не можете прикреплять файлы к сообщениям
Вы можете скачивать файлы


premier 2 embroidery crack | Claude Rains | The Lost Viking