Помутнения / Häiriötekijä / Distractions (Алекси Салменперя / Aleksi Salmenperä) [2015, Финляндия, комедия абсурда, WEB-DLRip] + Sub Rus(porcellus) + Original Fin

Ответить на тему
Статистика раздачи [Обновить пиров]
Размер:  1.46 GB   |    Зарегистрирован:  16 дней   |    Скачан:  2 раза

Полного источника не было: 9 часов

 
   
 
 
 
Автор Сообщение

galltoto.com

Создавать темы 02-Янв-2019 22:30

[Цитировать]

Помутнения / Häiriötekijä / Distractions
Страна: Финляндия
Жанр: комедия абсурда
Год выхода: 2015
Продолжительность: 01:21:09
Перевод: субтитры - porcellus
Субтитры: русские
Оригинальная аудиодорожка: финская
Режиссер: Алекси Салменперя / Aleksi Salmenperä
В ролях: Томми Корпела, Элина Книхтиля, Иро Ритала, Лотта Каихуа, Пирьо Лонка, Елена Лееве, Яни Воланен, Минна Хаапкюля, Ханну-Пекка Бьёркман, Минна Сюуронен
Описание: Фильм состоит из нескольких скетчей, разыгранных в основном, постоянным актерским составом. В каждом из скетчей разворачивается действо разной степени абсурдности, где авторы постарались придать повествованию максимальную степень гротеска и натуралистичности. Объединяющая всех главных персонажей тема - помутнение разума, как защитная реакция на невыносимые жизненные обстоятельства.

Внимание! В фильме присутствуют сцены не для слабонервных и ненормативная лексика.
Сэмпл: http://multi-up.com/1216924
Качество видео: WEB-DLRip
Формат файла: AVI
Видео: 720x304 (2.37:1), 25 fps, XviD build 50 ~2374 kbps avg, 0.43 bit/pixel
Аудио: 48 kHz, AC3 Dolby Digital, 2/0 (L,R) ch, ~192 kbps
Формат файла субтитров: softsub (SRT)

MediaInfo

GeneralComplete name : H:\temp\Hairiotekija.2015\Hairiotekija.aviFormat : AVIFormat/Info : Audio Video InterleaveFile size : 1.46 GiBDuration : 1 h 21 minOverall bit rate : 2 577 kb/sWriting application : VirtualDubMod 1.5.10.3 | www.virtualdub-fr.org || (build 2550/release)Writing library : VirtualDubMod build 2550/release
VideoID : 0Format : MPEG-4 VisualFormat profile : Advanced Simple@L5Format settings, BVOP : 1Format settings, QPel : NoFormat settings, GMC : No warppointsFormat settings, Matrix : Default (MPEG)Codec ID : XVIDCodec ID/Hint : XviDDuration : 1 h 21 minBit rate : 2 375 kb/sWidth : 720 pixelsHeight : 304 pixelsDisplay aspect ratio : 2.35:1Frame rate : 25.000 FPSColor space : YUVChroma subsampling : 4:2:0Bit depth : 8 bitsScan type : ProgressiveCompression mode : LossyBits/(Pixel*Frame) : 0.434Stream size : 1.35 GiB (92%)Writing library : XviD 1.2.1 (UTC 2008-12-04)
AudioID : 1Format : AC-3Format/Info : Audio Coding 3Mode extension : CM (complete main)Format settings, Endianness : BigCodec ID : 2000Duration : 1 h 21 minBit rate mode : ConstantBit rate : 192 kb/sChannel(s) : 2 channelsChannel positions : Front: L RSampling rate : 48.0 kHzFrame rate : 31.250 FPS (1536 spf)Bit depth : 16 bitsCompression mode : LossyStream size : 111 MiB (7%)Alignment : Split accross interleavesInterleave, duration : 40 ms (1.00 video frame)Interleave, preload duration : 500 ms

Скриншот c названием фильма

Фрагмент субтитров

1
00:01:16,900 --> 00:01:18,660
Привет, добро пожаловать.
2
00:01:18,820 --> 00:01:22,060
- Макс Стрёмберг.
- Леена Ниеми.
3
00:01:24,900 --> 00:01:27,420
- Какой чудесный свежий воздух.
- Пока да.
4
00:01:27,620 --> 00:01:30,860
- Здесь информация о квартире.
- Спасибо.
5
00:01:35,460 --> 00:01:38,900
Какая светлая.
Сделана перепланировка?
6
00:01:39,100 --> 00:01:40,380
Да.
7
00:01:40,500 --> 00:01:44,420
Зал соединен с гостиной,
это создает ощущение большего пространства.
8
00:01:44,660 --> 00:01:46,020
Да, так и есть.
9
00:01:46,100 --> 00:01:50,060
- Симпатичное помещение.
- Да, замечательное.
10
00:01:50,220 --> 00:01:52,540
В старом жилом фонде
11
00:01:52,700 --> 00:01:55,220
плутаешь по лабиринтам, прежде чем попасть в зал.
12
00:01:55,380 --> 00:01:58,620
Похоже, кухню передвинули туда.
13
00:01:58,740 --> 00:02:02,020
Это здорово. Обычно они такие маленькие.
14
00:02:02,180 --> 00:02:05,780
Да. Правда можно найти старые квартиры с большой кухней.
15
00:02:05,940 --> 00:02:09,260
Но изначально кухни всегда очень маленькие.
16
00:02:10,020 --> 00:02:12,140
В самом деле?
17
00:02:12,900 --> 00:02:17,500
Да. Господа принимали пищу в отдельной столовой.
18
00:02:23,580 --> 00:02:28,300
А слуги, соответственно, ютились на кухне.
19
00:02:32,860 --> 00:02:36,060
Трубы и электрика были заменены три года назад.
20
00:02:36,180 --> 00:02:40,420
- Да, я заметила.
- Фасад относительно в порядке.


[galltoto.com]_t_5656184.torrent
Торрент: Зарегистрирован ·  [ 2019-01-02 22:29 ] ·  46167761cd697993c2a6e4d0687208bd73f35ec7

15 KB

Статус: проверено
Скачан: 2 раз
Размер: 1.46 GB
Оценка: 
(Голосов: 0)
Сказали спасибо: 0  Спасибо
Похожие темы
[Профиль]    [ЛС]
Показать сообщения:    
Ответить на тему

Текущее время: Сегодня 03:27

Часовой пояс: GMT + 7



Вы не можете начинать темы
Вы не можете отвечать на сообщения
Вы не можете редактировать свои сообщения
Вы не можете удалять свои сообщения
Вы не можете голосовать в опросах
Вы не можете прикреплять файлы к сообщениям
Вы можете скачивать файлы


Gingerbread Spice Palette Palette De Fards À Paupières Style Too Faced En Stock! | Another Time | X-Men: Apocalypse