Мешок без дна (Рустам Хамдамов) [2017, драма, SATRip]

Ответить на тему
Статистика раздачи [Обновить пиров]
Размер:  1.37 GB   |    Зарегистрирован:  16 дней   |    Скачан:  0 раз

Полного источника не было: Никогда

 
   
 
 
 
Автор Сообщение

galltoto.com

Создавать темы 02-Янв-2019 22:29

[Цитировать]

Мешок без дна
Жанр: драма
Год выхода: 2017
Продолжительность: 01:40:48
Режиссёр: Рустам Хамдамов
В ролях: Светлана Немоляева
Сергей Колтаков
Елена Морозова
Андрей Кузичев
Кирилл Плетнёв
Евгений Ткачук
Анна Михалкова
Алла Демидова
Феликс Антипов
Алексей Солончев
Описание: История происходит во время правления русского императора Александра II. Фрейлина княжеского дворца рассказывает князю сказку, которая происходит в XIII веке и повествует о мистическом убийстве царевича в лесу. Участники истории, свидетели этого преступления, рассказывают разные версии происшествия, которые отличаются от того, что произошло на самом деле.
Доп. информация: Рип с канала Культура.
Сэмпл: http://multi-up.com/1217289
Качество видео: SATRip
Формат файла: AVI
Видео: MPEG4, XviD, 720x304 (2.35:1), 25.000 fps, 1 743 Kbps (0.319 bit/pixel)
Аудио: AC-3, 48.0 KHz, 2 ch, 192 Kbps, CBR

MediaInfo

Общее
Полное имя : F:\Мешок без дна.avi
Формат файла : AVI
Формат файла/Информация : Audio Video Interleave
Размер файла : 1,37 Гбайт
Продолжительность : 1 ч. 40 м.
Общий поток : 1945 Кбит/сек
Название фильма : Мешок без дна (2017)
Программа кодирования : VirtualDubMod 1.5.10.2 (build 2540/release)
Библиотека кодирования : VirtualDubMod build 2540/release
Авторское право : miha2154
Видео
Идентификатор : 0
Формат файла : MPEG-4 Visual
Профиль формата : Advanced Simple@L5
Настройки формата : BVOP1 / Custom Matrix
Параметр BVOP формата : 1
Параметр QPel формата : Нет
Параметр GMC формата : Без точки перехода
Параметр матрицы формата : Выборочная
Идентификатор кодека : XVID
Идентификатор кодека/Подсказка : XviD
Продолжительность : 1 ч. 40 м.
Битрейт : 1743 Кбит/сек
Ширина : 720 пикселей
Высота : 304 пикселя
Соотношение сторон : 2,35:1
Частота кадров : 25,000 кадров/сек
Цветовое пространство : YUV
Субдискретизация насыщенности : 4:2:0
Битовая глубина : 8 бит
Тип развёртки : Прогрессивная
Метод сжатия : С потерями
Бит/(Пиксели*Кадры) : 0.319
Размер потока : 1,23 Гбайт (90%)
Библиотека кодирования : XviD 65
Аудио
Идентификатор : 1
Формат файла : AC-3
Формат файла/Информация : Audio Coding 3
Коммерческое название : Dolby Digital
Идентификатор кодека : 2000
Продолжительность : 1 ч. 40 м.
Вид битрейта : Постоянный
Битрейт : 192 Кбит/сек
Каналы : 2 канала
Channel layout : L R
Частота : 48,0 КГц
Частота кадров : 31,250 кадров/сек (1536 SPF)
Битовая глубина : 16 бит
Метод сжатия : С потерями
Размер потока : 138 Мбайт (10%)
Выравнивание : Разделение по промежуткам
Продолжительность промежутка : 40 мс. (1,00 видеокадр)
Время предзагрузки промежутка : 500 мс.
ServiceKind/String : Complete Main

Скриншот c названием фильма

Скриншоты




[galltoto.com]_t_5658126.torrent
Торрент: Зарегистрирован ·  [ 2019-01-02 22:29 ] ·  74ec6937f5cf1316658cb3ede8ffe46cb1615041

14 KB

Статус: проверено
Скачан: 0 раз
Размер: 1.37 GB
Оценка: 
(Голосов: 0)
Сказали спасибо: 0  Спасибо
Похожие темы
[Профиль]    [ЛС]
Показать сообщения:    
Ответить на тему

Текущее время: Сегодня 03:25

Часовой пояс: GMT + 7



Вы не можете начинать темы
Вы не можете отвечать на сообщения
Вы не можете редактировать свои сообщения
Вы не можете удалять свои сообщения
Вы не можете голосовать в опросах
Вы не можете прикреплять файлы к сообщениям
Вы можете скачивать файлы


аксессуары | Niedrigster Preis | Серверные ОС от Microsoft