Экзамен-то я провалил... / I Flunked, But... / Rakudai wa shitakeredo (Ясудзиро Одзу / Yasujiro Ozu) [1930, Япония, комедия, немой, DVDRip] + Sub Rus

Ответить на тему
Статистика раздачи [Обновить пиров]
Размер:  1.07 GB   |    Зарегистрирован:  16 дней   |    Скачан:  0 раз

Полного источника не было: Никогда

 
   
 
 
 
Автор Сообщение

galltoto.com

Создавать темы 02-Янв-2019 22:29

[Цитировать]

Экзамен-то я провалил... / I Flunked, But... / Rakudai wa shitakeredo / 落第はしたけれど
Страна: Япония
Жанр: комедия, немой
Год выхода: 1930
Продолжительность: 01:01:38
Перевод: Субтитры русские - [url=tracker.php?rid=6473541]дед_сто_лет[/url]©
Оригинальная аудиодорожка: нет, музыкальное сопровождение
Режиссер: [url=tracker.php?nm=Yasujiro%20Ozu]Ясудзиро Одзу / Yasujiro Ozu[/url]
В ролях: Тацуо САЙТО, [url=viewtopic.php?p=68322574#68322574]Кинуё ТАНАКА[/url], Каору ФУТАБА, Томио АОКИ, Хироси МИКУРА, Итиро ОКУНИ, Тисю РЮ, Кэндзи САТОМЭ, Токио СЭКИ, Итиро ЦУКИДА, Хиро ВАКАБАЯСИ, Фуса ЯМАДА, Горо ЁКОЯМА, Дэбуо ЁКО
В ДЕНЬ 115-ЛЕТИЯ ЯСУДЗИРО ОДЗУ, И ДЕНЬ 55-ЛЕТИЯ ЕГО СМЕРТИ
Описание: Ранний немой фильм Одзу из коллекции студенческих комедий. Из всех жильцов пансиона только Такахаси не смог сдать экзамен и получить диплом бакалавра. Ему не хватает смелости признаться в этом любимой девушке.
> > > > > > >
Качество видео: DVDRip
Формат файла: AVI
Видео: 720x544 (1.32:1), 25 fps, XviD build 64 ~2292 kbps avg, 0.23 bit/pixel
Аудио: 48 kHz, MPEG Layer 3, 2 ch, ~192.00 kbps avg
Формат файла субтитров: softsub (SRT)
Доп. информация о субтитрах: дед_сто_лет

Пример субтитров

20
00:18:58,910 --> 00:19:00,787
ХИМЧИСТКА
21
00:19:40,350 --> 00:19:43,229
Экзамен - это дело хитрости.
22
00:21:07,110 --> 00:21:10,262
Мою рубашку отдали в химчистку.
23
00:23:15,150 --> 00:23:19,701
В жизни не всё происходит по плану.
24
00:23:34,590 --> 00:23:37,469
ДЕПАРТАМЕНТ ОБРАЗОВАНИЯ
25
00:24:03,510 --> 00:24:09,347
Мы ничего не можем поделать.
К сожалению, экзамен провален.
26
00:24:16,710 --> 00:24:21,500
Наверное, это какая-то ошибка.
Вы не могли бы ещё раз проверить?
27
00:24:31,270 --> 00:24:35,389
ВЫПУСКНИКИ ФАКУЛЬТЕТА ЭКОНОМИКИ И ПРАВА:
Накамура, Кавасима, Симидзу...
28
00:25:06,206 --> 00:25:09,945
77-й - Хидэо Сугимото...
29
00:26:38,870 --> 00:26:41,066
ВСЕГО 77 ВЫПУСКНИКОВ
30
00:27:49,870 --> 00:27:52,384
Нам бы всем хотелось получить диплом.
31
00:28:03,910 --> 00:28:05,483
Нас ждет отчисление.
32
00:28:08,230 --> 00:28:10,540
Встретимся в следующем семестре.
33
00:28:56,010 --> 00:28:58,219
Я понимаю,
что вам обидно за своих друзей...
34
00:28:58,244 --> 00:29:01,045
... но вы сами сдали экзамен,
благодаря своему усердию.
35
00:29:59,390 --> 00:30:00,539
Поздравляю!
36
00:30:52,750 --> 00:30:57,699
Я получил диплом, благодаря вашей помощи.
37
00:31:19,670 --> 00:31:26,224
Вы научили меня всему,
я никак не думал, что вы провалитесь.
38
00:32:11,350 --> 00:32:14,263
Что с ним стряслось?
39
00:32:18,470 --> 00:32:21,303
Он был последним в списке,
но он сдал экзамен.
40
00:32:29,270 --> 00:32:32,786
Это потому, что вы всему его научили.

MediaInfo

GeneralComplete name : C:\...\Rakudai.wa.shitakeredo(1930)Yasujiro.Ozu\Rakudai.wa.shitakeredo(1930)Yasujiro.Ozu.aviFormat : AVIFormat/Info : Audio Video InterleaveFile size : 1.07 GiBDuration : 1h 1mnOverall bit rate : 2 494 Kbps
VideoID : 0Format : MPEG-4 VisualFormat profile : Advanced Simple@L5Format settings, BVOP : 2Format settings, QPel : NoFormat settings, GMC : No warppointsFormat settings, Matrix : Default (H.263)Codec ID : XVIDCodec ID/Hint : XviDDuration : 1h 1mnBit rate : 2 293 KbpsWidth : 720 pixelsHeight : 544 pixelsDisplay aspect ratio : 4:3Frame rate : 25.000 fpsColor space : YUVChroma subsampling : 4:2:0Bit depth : 8 bitsScan type : ProgressiveCompression mode : LossyBits/(Pixel*Frame) : 0.234Stream size : 1 011 MiB (92%)Writing library : XviD 64
AudioID : 1Format : MPEG AudioFormat version : Version 1Format profile : Layer 3Mode : Joint stereoMode extension : MS StereoCodec ID : 55Codec ID/Hint : MP3Duration : 1h 1mnBit rate mode : ConstantBit rate : 192 KbpsChannel(s) : 2 channelsSampling rate : 48.0 KHzCompression mode : LossyStream size : 84.5 MiB (8%)Alignment : Aligned on interleavesInterleave, duration : 40 ms (1.00 video frame)Writing library : LAME3.98rEncoding settings : -m j -V 4 -q 2 -lowpass 18.6 -b 192

Скриншот c названием фильма

Скриншоты



[galltoto.com]_t_5658370.torrent
Торрент: Зарегистрирован ·  [ 2019-01-02 22:29 ] ·  a9d7a8b73656faf13f8a9fc176c0827d3924d0

11 KB

Статус: проверено
Скачан: 0 раз
Размер: 1.07 GB
Оценка: 
(Голосов: 0)
Сказали спасибо: 0  Спасибо
Похожие темы
[Профиль]    [ЛС]
Показать сообщения:    
Ответить на тему

Текущее время: Сегодня 03:24

Часовой пояс: GMT + 7



Вы не можете начинать темы
Вы не можете отвечать на сообщения
Вы не можете редактировать свои сообщения
Вы не можете удалять свои сообщения
Вы не можете голосовать в опросах
Вы не можете прикреплять файлы к сообщениям
Вы можете скачивать файлы


Primaire Antirouille Haute Resistance Rustol Cip 0.75L | Più cari | Animes Fairy Tail 8x10