Сераль / Sérail / Serail / Surreal Estate (Эдуардо Де Грегорио / Eduardo de Gregorio) [1976, Франция, драма, триллер, DVDRip] VO (Александр Дасевич)

Ответить на тему
Статистика раздачи [Обновить пиров]
Размер:  1.36 GB   |    Зарегистрирован:  16 дней   |    Скачан:  0 раз

Полного источника не было: Никогда

 
   
 
 
 
Автор Сообщение

galltoto.com

Создавать темы 02-Янв-2019 22:29

[Цитировать]

Сераль / Sérail / Serail / Surreal Estate
Страна: Франция
Жанр: драма, триллер
Год выхода: 1976
Продолжительность: 01:23:13
Перевод: Одноголосый закадровый Александр Дасевич
Субтитры: нет
Режиссер: Эдуардо Де Грегорио / Eduardo de Gregorio
В ролях: Лесли Карон, Бюль Ожье, Мари Пизье, Корин Редгрейв, Мэрлин Джонс, Пьер Бодри
Описание: Британский писатель Эрик Санж приезжает в деревню, чтобы осмотреть и, возможно, купить дом. На пороге его встречает странная белокурая девушка Ариана, одетая в одежду из другого времени, которая показывает ему комнаты, а затем внезапно исчезает. Когда Эрик Санж приходит в дом во второй раз, там его встречает горничная Селесте и брюнетка Агата, которые и слыхом не слыхивали об Ариане. Затем писатель остаётся в доме один и снова встречает Ариану. Это – начало головоломки, в которой понятен каждый шаг, но сложить её не удаётся. Эдуардо де Грегорио – диалогист и сценарист Жака Риветта, снимает историю о загадочном доме, о его обитательницах и человеке, который хочет во всём разобраться. Тонкие кружева сюжета скрывают самое главное – то, до чего остаётся всего один шаг. Разгадка кроется в занавесях, зеркалах и запретных комнатах. Или где-то ещё…
Сэмпл: http://multi-up.com/1217414
Качество видео: DVDRip (Источник: Torrentc - DVD5)
Формат файла: AVI
Видео: XviD 73, 720x304, (2,35:1), 25,000 fps, 2145 Кбит/с, 8 бит
Аудио: Русский (АС3, 2 ch (Front: L R), 48,0 KHz, 192 Kbps)

MediaInfo

ОбщееПолное имя : H:\Фильмы на трекер\Сераль (драма, трллер 1976 год).aviФормат файла : AVIФормат файла/Информация : Audio Video InterleaveРазмер файла : 1,36 ГбайтПродолжительность : 1 ч. 23 м.Общий поток : 2346 Кбит/секПрограмма кодирования : VirtualDubMod 1.5.10.2 (build 2540/release)Библиотека кодирования : VirtualDubMod build 2540/release
ВидеоИдентификатор : 0Формат файла : MPEG-4 VisualПрофиль формата : Advanced Simple@L5Параметр BVOP формата : 2Параметр QPel формата : НетПараметр GMC формата : Без точки переходаПараметр матрицы формата : ВыборочнаяИдентификатор кодека : XVIDИдентификатор кодека/Подсказка : XviDПродолжительность : 1 ч. 23 м.Битрейт : 2145 Кбит/секШирина : 704 пикселяВысота : 304 пикселяСоотношение сторон : 2,35:1Частота кадров : 25,000 кадров/секЦветовое пространство : YUVСубдискретизация насыщенности : 4:2:0Битовая глубина : 8 битТип развёртки : ПрогрессивнаяМетод сжатия : С потерямиБит/(Пиксели*Кадры) : 0.401Размер потока : 1,25 Гбайт (91%)Библиотека кодирования : XviD 73
АудиоИдентификатор : 1Формат файла : AC-3Формат файла/Информация : Audio Coding 3Расширение режима : CM (complete main)Параметр Endianness формата : BigИдентификатор кодека : 2000Продолжительность : 1 ч. 23 м.Вид битрейта : ПостоянныйБитрейт : 192 Кбит/секКаналы : 2 каналаРасположение каналов : Front: L RЧастота : 48,0 КГцЧастота кадров : 31,250 кадров/сек (1536 spf)Метод сжатия : С потерямиРазмер потока : 114 Мбайт (8%)Выравнивание : Разделение по промежуткамПродолжительность промежутка : 40 мс. (1,00 видеокадр)Время предзагрузки промежутка : 500 мс.

Скриншоты



[galltoto.com]_t_5658948.torrent
Торрент: Зарегистрирован ·  [ 2019-01-02 22:29 ] ·  1d23351f84e9613d4e842d236a9719176bf58cc8

14 KB

Статус: проверено
Скачан: 0 раз
Размер: 1.36 GB
Оценка: 
(Голосов: 0)
Сказали спасибо: 0  Спасибо
Похожие темы
[Профиль]    [ЛС]
Показать сообщения:    
Ответить на тему

Текущее время: Сегодня 03:23

Часовой пояс: GMT + 7



Вы не можете начинать темы
Вы не можете отвечать на сообщения
Вы не можете редактировать свои сообщения
Вы не можете удалять свои сообщения
Вы не можете голосовать в опросах
Вы не можете прикреплять файлы к сообщениям
Вы можете скачивать файлы


Johanna Braddy | 자세히 읽기 | Countdown