Цветы в крови / Кровавые цветы / Fleurs de sang / Flowers of Blood (Мириам Мезьер / Myriam Mézières, Ален Таннер / Alain Tanner) [2002, Франция, Испания, Швейцария, драма, триллер, DVDRip] VO (Александр Дасевич)

Ответить на тему
Статистика раздачи [Обновить пиров]
Размер:  1.46 GB   |    Зарегистрирован:  16 дней   |    Скачан:  0 раз

Полного источника не было: Никогда

 
   
 
 
 
Автор Сообщение

galltoto.com

Создавать темы 02-Янв-2019 22:29

[Цитировать]

Цветы в крови / Кровавые цветы / Fleurs de sang / Flowers of Blood
Страна: Франция, Испания, Швейцария
Жанр: драма, триллер
Год выхода: 2002
Продолжительность: 01:40:18
Перевод: Одноголосый закадровый Александр Дасевич
Субтитры: нет
Режиссер: Мириам Мезьер / Myriam Mézières
В ролях: Мириам Мезьер, Бруно Тодескини, Луиза Шпиндель, Тесс Бартез, Анна Фассио, Мохамед Феллаг, Луис Рего, Диего Пелаес, Васис Диоп
Описание: Пам, 14-летняя девочка, случайно убивает своего первого возлюбленного, человека намного старше ее. Весь последующий сюжет – ретроспектива, начинается она за пять лет до этого события. В то время Пам еще только исполнилось девять. Она – дочь танцовщицы, и сопровождает свою мать Лили повсюду, от одного кабаре до другого, помогая той одеваться перед выходом на сцену. Лили не просто танцовщица, она великая актриса, ее концертный номер – это не банальная эротика, а подлинное произведение искусства. Сценарий написан Мириам Мезьер на основе ее собственных воспоминаний...
Сэмпл: http://multi-up.com/1217427
Качество видео: DVDRip (Источник: Torrentc - DVD5)
Формат файла: AVI
Видео: XviD 73, 704x400, (16:9), 25,000 fps, 1886 Кбит/с, 8 бит, 0.27 bit/pixel
Аудио: Русский (АС3, 2 ch (Front: L R), 48,0 KHz, 192 Kbps)

MediaInfo

ОбщееПолное имя : H:\Фильмы на трекер\Цветы в крови (драма, триллер 2002 год).aviФормат файла : AVIФормат файла/Информация : Audio Video InterleaveРазмер файла : 1,46 ГбайтПродолжительность : 1 ч. 40 м.Общий поток : 2088 Кбит/секПрограмма кодирования : VirtualDubMod 1.5.10.2 (build 2540/release)Библиотека кодирования : VirtualDubMod build 2540/release
ВидеоИдентификатор : 0Формат файла : MPEG-4 VisualПрофиль формата : Advanced Simple@L5Параметр BVOP формата : 2Параметр QPel формата : НетПараметр GMC формата : Без точки переходаПараметр матрицы формата : ВыборочнаяИдентификатор кодека : XVIDИдентификатор кодека/Подсказка : XviDПродолжительность : 1 ч. 40 м.Битрейт : 1886 Кбит/секШирина : 704 пикселяВысота : 400 пикселейСоотношение сторон : 16:9Частота кадров : 25,000 кадров/секЦветовое пространство : YUVСубдискретизация насыщенности : 4:2:0Битовая глубина : 8 битТип развёртки : ПрогрессивнаяМетод сжатия : С потерямиБит/(Пиксели*Кадры) : 0.268Размер потока : 1,32 Гбайт (90%)Библиотека кодирования : XviD 73
АудиоИдентификатор : 1Формат файла : AC-3Формат файла/Информация : Audio Coding 3Расширение режима : CM (complete main)Параметр Endianness формата : BigИдентификатор кодека : 2000Продолжительность : 1 ч. 40 м.Вид битрейта : ПостоянныйБитрейт : 192 Кбит/секКаналы : 2 каналаРасположение каналов : Front: L RЧастота : 48,0 КГцЧастота кадров : 31,250 кадров/сек (1536 spf)Метод сжатия : С потерямиРазмер потока : 138 Мбайт (9%)Выравнивание : Разделение по промежуткамПродолжительность промежутка : 40 мс. (1,00 видеокадр)Время предзагрузки промежутка : 500 мс.

Скриншот c названием фильма

Скриншоты



[galltoto.com]_t_5659015.torrent
Торрент: Зарегистрирован ·  [ 2019-01-02 22:29 ] ·  4a952adb2d9d413547e731f9665dcd2fa8c87e55

15 KB

Статус: проверено
Скачан: 0 раз
Размер: 1.46 GB
Оценка: 
(Голосов: 0)
Сказали спасибо: 0  Спасибо
Похожие темы
[Профиль]    [ЛС]
Показать сообщения:    
Ответить на тему

Текущее время: Сегодня 03:15

Часовой пояс: GMT + 7



Вы не можете начинать темы
Вы не можете отвечать на сообщения
Вы не можете редактировать свои сообщения
Вы не можете удалять свои сообщения
Вы не можете голосовать в опросах
Вы не можете прикреплять файлы к сообщениям
Вы можете скачивать файлы


Champions FRENCH WEBRIP 2018 | (S)ex List | Zippyshare