Песни любви и ненависти / Songs of Love and Hate (Каталин Гёдрёш / Katalin Godros) [2010, Швейцария, драма, DVDRip] VO (Олег Воротилин) + Sub Rus + Original Deu

Ответить на тему
Статистика раздачи [Обновить пиров]
Размер:  1.64 GB   |    Зарегистрирован:  16 дней   |    Скачан:  1 раз

Полного источника не было: 10 дней

 
   
 
 
 
Автор Сообщение

galltoto.com

Создавать темы 02-Янв-2019 22:29

[Цитировать]

Песни любви и ненависти / Songs of Love and Hate
Страна: Швейцария
Жанр: драма
Год выхода: 2010
Продолжительность: 01:25:30
Перевод: Одноголосый закадровый Олег Воротилин по субтитрам Kasablanka
Субтитры: русские
Оригинальная аудиодорожка: немецкий
Режиссер: Каталин Гёдрёш / Katalin Godros
В ролях: Йерун Виллемс / Jeroen Willems, Урсина Ларди / Ursina Lardi, Сара Хорват / Sarah Horvath, Луиза Шаппельт / Luisa Sappelt, Luisa Sappelt, Йоль Басман / Joel Basman, Мира Элиза Гореш / Mira Elisa Goeres и другие.
Описание: Рико и Анна живут на юге Швейцарии. Здесь, в кантоне Тичино, славящемся своими виноградниками растут и две их дочери, тихая Роби и шестнадцатилетняя Лилли. Спокойная жизнь швейцарских виноделов заканчивается в тот момент, когда Лилли, осознавшая власть своей женственности, проявляет агрессию.
Название фильма является прямой отсылкой к альбому Леонарда Коэна 1971 года «Песни любви и ненависти».
Я позаимствовала название у альбома Леонарда Коэна. Для меня его отеческий голос по-прежнему полон эротизма. В конце концов, разве не из песен любви и ненависти складывается каждая семья? (Каталин Гёдрёш)
Доп. информация:

скрытый текст

Номинации фильма "Песни любви и ненависти" (2010)
Международный кинофестиваль в Локарно (Швейцария), 2010 год
• Номинация на "Золотой леопард" (Каталин Гёдрёш)
О фильме: Один из кинокритиков сравнил образ девушки с говорящим именем Лилли с колдуньей Цирцеей и, действительно, ее темная сексуальность, среди виноградников Тичино превращается в ядовитые чары, которые медленно разрушают семью швейцарских виноградарей. В интервью Каталин Гёдрёш призналась, что ей было важно передать не только опасность пробуждающейся сексуальности шестнадцатилетней героини, замешанной на детской жестокости, но и то, как обремененные своими мотивами окружающие не могут противостоять ей. Никто из героев не способен сопротивляться разрушающей силе Лилли, ни отец, чье чувство вины носит двоякий характер, ни старающаяся не замечать очевидного, мать. (Kasablanka)
Выдержка из интервью Каталин Гёдрёш для AVIVA-Berlin
Что побудило вас рассказать эту историю?
Всему виной мое увлечение тем, что невозможно объяснить. Я видела множество исследований и статистических данных, в которых женская агрессия почти всегда объяснялась сексуальным насилием. Фильмы и СМИ упрощают психологическую сторону в действиях обвиняемых, но я задалась вопросом: «Как быть если травмы не было, а именно мелкие семейные неурядицы выступают катализатором, приводящим в движение зло, уже заложенное в человеке?» Я с интересом следила за процессом по делу двух десятилетних ребят, жестоко убивших двухлетнего Джеймса Бургера, чтобы объяснить их поступок, сторона защиты искала причину в безнадзорности и жестоком обращении с мальчиками в детстве. Главным образом мною руководило желание рассказать семейную драму, в которой ужас каждодневности происходил бы без непосредственного участия зла, привлеченного извне.
Сэмпл: http://yadi.sk/i/Kbpa0t1Ug8A7TA
Качество видео: DVDRip
Формат файла: AVI
Видео: 720 x 304, (2,35:1) 25 fps, XviD, 1828 kbps avg, 0.334 bit/pixel
Аудио 1: 48 kHz, AC3, 6 chnls (3/2.1) 448.00 kbps avg (русский)
Аудио 2: 48 kHz, AC3, 6 chnls (3/2.1) 448.00 kbps avg (немецкий)
Формат файла субтитров: softsub (SRT)

MediaInfo

ОбщееПолное имя : E:\Видео\ы\Песни любви\Songs of Love and Hate.2010\Songs of Love and Hate.2010.aviФормат файла : AVIФормат файла/Информация : Audio Video InterleaveРазмер файла : 1,64 ГбайтПродолжительность : 1 ч. 25 м.Общий поток : 2738 Кбит/сек
ВидеоИдентификатор : 0Формат файла : MPEG-4 VisualПрофиль формата : Advanced Simple@L5Параметр BVOP формата : 2Параметр QPel формата : НетПараметр GMC формата : Без точки переходаПараметр матрицы формата : Default (H.263)Идентификатор кодека : XVIDИдентификатор кодека/Подсказка : XviDПродолжительность : 1 ч. 25 м.Битрейт : 1828 Кбит/секШирина : 720 пикселейВысота : 304 пикселяСоотношение сторон : 2,35:1Частота кадров : 25,000 кадров/секЦветовое пространство : YUVСубдискретизация насыщенности : 4:2:0Битовая глубина : 8 битТип развёртки : ПрогрессивнаяМетод сжатия : С потерямиБит/(Пиксели*Кадры) : 0.334Размер потока : 1,09 Гбайт (67%)Библиотека кодирования : XviD 64
Аудио #1Идентификатор : 1Формат файла : AC-3Формат файла/Информация : Audio Coding 3Расширение режима : CM (complete main)Параметр Endianness формата : BigИдентификатор кодека : 2000Продолжительность : 1 ч. 25 м.Вид битрейта : ПостоянныйБитрейт : 448 Кбит/секКаналы : 6 каналовРасположение каналов : Front: L C R, Side: L R, LFEЧастота : 48,0 КГцЧастота кадров : 31,250 кадров/сек (1536 spf)Битовая глубина : 16 битМетод сжатия : С потерямиРазмер потока : 274 Мбайт (16%)Выравнивание : Разделение по промежуткамПродолжительность промежутка : 40 мс. (1,00 видеокадр)Время предзагрузки промежутка : 500 мс.
Аудио #2Идентификатор : 2Формат файла : AC-3Формат файла/Информация : Audio Coding 3Расширение режима : CM (complete main)Параметр Endianness формата : BigИдентификатор кодека : 2000Продолжительность : 1 ч. 25 м.Вид битрейта : ПостоянныйБитрейт : 448 Кбит/секКаналы : 6 каналовРасположение каналов : Front: L C R, Side: L R, LFEЧастота : 48,0 КГцЧастота кадров : 31,250 кадров/сек (1536 spf)Битовая глубина : 16 битМетод сжатия : С потерямиРазмер потока : 274 Мбайт (16%)Выравнивание : Разделение по промежуткамПродолжительность промежутка : 40 мс. (1,00 видеокадр)Время предзагрузки промежутка : 500 мс.

Скриншот c названием фильма

Скриншоты




Источник: Torrentc


[galltoto.com]_t_5659519.torrent
Торрент: Зарегистрирован ·  [ 2019-01-02 22:29 ] ·  a74f31dde0ce587fe190d882a09d64d21d664c55

17 KB

Статус: проверено
Скачан: 1 раз
Размер: 1.64 GB
Оценка: 
(Голосов: 0)
Сказали спасибо: 0  Спасибо
Похожие темы
[Профиль]    [ЛС]
Показать сообщения:    
Ответить на тему

Текущее время: Сегодня 03:13

Часовой пояс: GMT + 7



Вы не можете начинать темы
Вы не можете отвечать на сообщения
Вы не можете редактировать свои сообщения
Вы не можете удалять свои сообщения
Вы не можете голосовать в опросах
Вы не можете прикреплять файлы к сообщениям
Вы можете скачивать файлы


Pj Masks Bathing Colors Fun, Learn Colors with Pj Masks Wrong heads Toys | Trance (Radioshows, Podcasts, Live Sets, Mixes) (lossy) | new women's 86 Tops Loose dress baseball T-shirt W53 €24,06 Verkäufer akzeptiert PayPal Gekauft von 100+