Губы Жан-Пьера / La bouche de Jean-Pierre (Люсиль Хаджихалилович / Lucile Hadzihalilovic) [1996, Франция, драма, DVDRip] VO (Олег Воротилин) + Sub Rus + Original Fra

Ответить на тему
Статистика раздачи [Обновить пиров]
Размер:  819 MB   |    Зарегистрирован:  16 дней   |    Скачан:  0 раз

Полного источника не было: Никогда

 
   
 
 
 
Автор Сообщение

galltoto.com

Создавать темы 02-Янв-2019 22:29

[Цитировать]

Губы Жан-Пьера / La bouche de Jean-Pierre
Страна: Франция
Жанр: драма
Год выхода: 1996
Продолжительность: 00:50:44
Перевод: Одноголосый закадровый Олег Воротилин по субтитрам medik-video
Субтитры: русские
Оригинальная аудиодорожка: французский
Режиссер: Люсиль Хаджихалилович / Lucile Hadzihalilovic
В ролях: Дениз Арон-Шропфер (Solange), Сандра Саммартино (Mimi), Дениз Шропфер, Мишель Трилло (Jean-Pierre)
Описание: Мими десять лет, когда однажды ночью ее мать пытается совершить самоубийство. Попытка не увенчается успехом, и Мими отправляется жить к своей тете, пока ее мать лечится в больнице. Тетя живет с мужчиной, Жан-Пьером, который вскоре проявляет довольно нездоровый интерес к девочке, сделав жизнь еще более жалкой для Мими, чем она уже была. И вот теперь, похоже несчастья матери переходят к дочери.
Доп. информация: Оператор - Гаспар Ноэ
Сэмпл: http://yadi.sk/i/Xrq-wqhMUSGz9Q
Качество видео: DVDRip
Формат файла: AVI
Видео: XviD; 720x272 (2.647); 1866 Kbps; 23,976 fps; 0,397 bpp
Аудио 1: AC-3; 192 Kbps; CBR; 2 ch; 48.0 KHz, русский
Аудио 2: MP3; 192 Kbps; CBR; 2 ch; 48.0 KHz, французский
Формат файла субтитров: softsub (SRT)

MediaInfo

ОбщееПолное имя : E:\Видео\ы\Рот Жанпьера\La bouche de Jean-Pierre (1996)\La bouche de Jean-Pierre (1996).aviФормат файла : AVIФормат файла/Информация : Audio Video InterleaveРазмер файла : 819 МбайтПродолжительность : 50 м. 33 с.Общий поток : 2264 Кбит/секПрограмма кодирования : VirtualDubMod 1.5.10.2 (build 2542/release)Библиотека кодирования : VirtualDubMod build 2542/release
ВидеоИдентификатор : 0Формат файла : MPEG-4 VisualПрофиль формата : Advanced Simple@L5Параметр BVOP формата : 2Параметр QPel формата : НетПараметр GMC формата : Без точки переходаПараметр матрицы формата : Default (MPEG)Идентификатор кодека : XVIDИдентификатор кодека/Подсказка : XviDПродолжительность : 50 м. 33 с.Битрейт : 1866 Кбит/секШирина : 720 пикселейВысота : 272 пикселяСоотношение сторон : 2,647Частота кадров : 23,976 (24000/1001) кадра/секЦветовое пространство : YUVСубдискретизация насыщенности : 4:2:0Битовая глубина : 8 битТип развёртки : ПрогрессивнаяМетод сжатия : С потерямиБит/(Пиксели*Кадры) : 0.397Размер потока : 675 Мбайт (82%)Библиотека кодирования : XviD 1.2.1 (UTC 2008-12-04)
Аудио #1Идентификатор : 1Формат файла : AC-3Формат файла/Информация : Audio Coding 3Расширение режима : CM (complete main)Параметр Endianness формата : BigИдентификатор кодека : 2000Продолжительность : 50 м. 33 с.Вид битрейта : ПостоянныйБитрейт : 192 Кбит/секКаналы : 2 каналаРасположение каналов : Front: L RЧастота : 48,0 КГцЧастота кадров : 31,250 кадров/сек (1536 spf)Битовая глубина : 16 битМетод сжатия : С потерямиРазмер потока : 69,4 Мбайт (8%)Выравнивание : Разделение по промежуткамПродолжительность промежутка : 42 мс. (1,00 видеокадр)Время предзагрузки промежутка : 500 мс.
Аудио #2Идентификатор : 2Формат файла : MPEG AudioВерсия формата : Version 1Профиль формата : Layer 3Идентификатор кодека : 55Идентификатор кодека/Подсказка : MP3Продолжительность : 50 м. 33 с.Вид битрейта : ПостоянныйБитрейт : 192 Кбит/секКаналы : 2 каналаЧастота : 48,0 КГцМетод сжатия : С потерямиРазмер потока : 69,4 Мбайт (8%)Выравнивание : Соединение по промежуткамПродолжительность промежутка : 42 мс. (1,00 видеокадр)Время предзагрузки промежутка : 504 мс.Библиотека кодирования : LAME3.99rНастройки программы : -m s -V 4 -q 0 -lowpass 18.6 -b 192

Скриншот c названием фильма

Скриншоты




Источник: Torrentc


[galltoto.com]_t_5659526.torrent
Торрент: Зарегистрирован ·  [ 2019-01-02 22:29 ] ·  8621b8c0cba79152ff59b7bf089a8d0150f53570

17 KB

Статус: проверено
Скачан: 0 раз
Размер: 819 MB
Оценка: 
(Голосов: 0)
Сказали спасибо: 0  Спасибо
Похожие темы
[Профиль]    [ЛС]
Показать сообщения:    
Ответить на тему

Текущее время: Сегодня 03:13

Часовой пояс: GMT + 7



Вы не можете начинать темы
Вы не можете отвечать на сообщения
Вы не можете редактировать свои сообщения
Вы не можете удалять свои сообщения
Вы не можете голосовать в опросах
Вы не можете прикреплять файлы к сообщениям
Вы можете скачивать файлы


Komédie | Gustavo Quiroz | Family Size