Дом, который построил Джек / The House That Jack Built (Ларс фон Триер / Lars von Trier) [2018, Дания, Франция, Германия, Швеция, ужасы, триллер, драма, WEBRip] Original + Sub Rus

Ответить на тему
Статистика раздачи [Обновить пиров]
Размер:  2.14 GB   |    Зарегистрирован:  16 дней   |    Скачан:  0 раз

Полного источника не было: Никогда

 
   
 
 
 
Автор Сообщение

galltoto.com

Создавать темы 02-Янв-2019 22:29

[Цитировать]

Дом, который построил Джек / The House That Jack Built Страна: Дания, Франция, Германия, Швеция
Жанр: ужасы, триллер, драма
Год выхода: 2018
Продолжительность: 02:30:02

Перевод: Субтитры
Субтитры: Полные русские - отдельно
Оригинальная аудиодорожка: Английский
Режиссер: Ларс фон Триер / Lars von Trier
В ролях: Мэтт Диллон, Бруно Ганц, Ума Турман, Шиван Фэллон, Софи Гробёль, Райли Кио, Джереми Дэвис, Эдвард Спелирс, Дэвид Бэйли, Ю Джи-тхэ
Описание: История серийного убийцы по имени Джек разворачивается в Америке 70-х. За 12 лет блестящей «карьеры» Джеку встретятся назойливая попутчица, наивная подружка и другие очаровательные в своей глупости жертвы. Пять невероятных, до жути изобретательных и порой до смеха абсурдных убийств, к каждому из которых Джек относится как к настоящему произведению искусства.
Сэмпл: http://multi-up.com/1217856
Качество видео: WEBRip
Источник: Torrentc: The.House.That.Jack.Built.2018.1080p.AMZN.WEBRip.DDP5.1.x264-NTG
Формат файла: AVI
Видео: 704x288 (2.44:1), 24.000 fps, XviD build 65 ~1835 kbps avg, 0.38 bit/pixel
Аудио: 48 kHz, AC3 Dolby Digital, 2/0 (L,R) ch, ~192 kbps
Rip by Ториял для

Пример субтитров


1
00:00:28,097 --> 00:00:30,444
Можно задать вопрос?
2
00:00:30,478 --> 00:00:33,102
Не могу обещать, что отвечу.
3
00:00:34,655 --> 00:00:38,383
Про это я и хотел спросить.
4
00:00:38,417 --> 00:00:42,145
По дороге можно разговаривать?
5
00:00:42,180 --> 00:00:44,975
Я подумал, есть какие-то правила.
6
00:00:45,010 --> 00:00:46,770
Скажем так,
7
00:00:46,805 --> 00:00:51,189
мало кому удается не проронить
по пути ни единого слова.
8
00:00:51,223 --> 00:00:54,606
Людей в это время охватывает
странное неудержимое желание
9
00:00:54,640 --> 00:00:57,298
во всём признаться.
10
00:00:57,333 --> 00:00:59,473
То, что они говорят не имеет
11
00:00:59,507 --> 00:01:02,096
большой риторической ценности.
12
00:01:02,131 --> 00:01:05,444
Но ты вполне можешь поговорить.
13
00:01:05,479 --> 00:01:08,654
Только не думай, что сможешь
рассказать мне то,
14
00:01:08,689 --> 00:01:10,725
чего я ещё не слышал.
15
00:01:20,459 --> 00:01:23,186
Я предварительно
разделю мой рассказ
16
00:01:23,221 --> 00:01:26,534
на пять инцидентов,
выбранных наугад
17
00:01:26,569 --> 00:01:28,743
за двенадцатилетний период.
18
00:01:55,529 --> 00:01:59,049
Я тут тупо стою
с домкратом в руках.
19
00:01:59,084 --> 00:02:01,569
Он не работает.
20
00:02:01,604 --> 00:02:04,193
Можно одолжить
у вас домкрат?
21
00:02:04,227 --> 00:02:06,505
У меня его нет.

MediaInfo


Format : AVI
Format/Info : Audio Video Interleave
Format profile : OpenDML
File size : 2.14 GiB
Duration : 2 h 30 min
Overall bit rate : 2 034 kb/s
Writing application : VirtualDubMod 1.5.10.3 | www.virtualdub-fr.org || (build 2550/release)
Writing library : VirtualDubMod build 2550/release
Video
ID : 0
Format : MPEG-4 Visual
Format profile : Advanced Simple@L5
Format settings : BVOP1 / Custom Matrix
Format settings, BVOP : 1
Format settings, QPel : No
Format settings, GMC : No warppoints
Format settings, Matrix : Custom
Codec ID : XVID
Codec ID/Hint : XviD
Duration : 2 h 30 min
Bit rate : 1 830 kb/s
Width : 704 pixels
Height : 288 pixels
Display aspect ratio : 2.40:1
Frame rate : 24.000 FPS
Original frame rate : 24.005 FPS
Color space : YUV
Chroma subsampling : 4:2:0
Bit depth : 8 bits
Scan type : Progressive
Compression mode : Lossy
Bits/(Pixel*Frame) : 0.376
Stream size : 1.93 GiB (90%)
Writing library : XviD 65
Audio
ID : 1
Format : AC-3
Format/Info : Audio Coding 3
Commercial name : Dolby Digital
Codec ID : 2000
Duration : 2 h 30 min
Bit rate mode : Constant
Bit rate : 192 kb/s
Channel(s) : 2 channels
Channel positions : Front: L R
Sampling rate : 48.0 kHz
Frame rate : 31.250 FPS (1536 SPF)
Bit depth : 16 bits
Compression mode : Lossy
Stream size : 207 MiB (9%)
Alignment : Split accross interleaves
Interleave, duration : 42 ms (1.00 video frame)
Interleave, preload duratio : 500 ms
Service kind : Complete Main

Скриншоты



[galltoto.com]_t_5661476.torrent
Торрент: Зарегистрирован ·  [ 2019-01-02 22:29 ] ·  482c7d027cff5c0abb146dab3bb568a2462b2f63

11 KB

Статус: проверено
Скачан: 0 раз
Размер: 2.14 GB
Оценка: 
(Голосов: 0)
Сказали спасибо: 0  Спасибо
Похожие темы
[Профиль]    [ЛС]
Показать сообщения:    
Ответить на тему

Текущее время: Сегодня 03:11

Часовой пояс: GMT + 7



Вы не можете начинать темы
Вы не можете отвечать на сообщения
Вы не можете редактировать свои сообщения
Вы не можете удалять свои сообщения
Вы не можете голосовать в опросах
Вы не можете прикреплять файлы к сообщениям
Вы можете скачивать файлы


James Spader | Anne no Aijou | DR Brief °°Großer Preis von Wien 1943 °°4er BLOCK  Mich.858 Sonderstempel