Счастливый конец / Хэппи энд / Šťastný konec / Stastny konec / Happy End (Олдржих Липский / Oldrich Lipsky) [1967, Чехословакия, Комедия, экспериментальный, DVDRip] MVO (Студия "Кондор") + Original Zha

Ответить на тему
Статистика раздачи [Обновить пиров]
Размер:  1.35 GB   |    Зарегистрирован:  16 дней   |    Скачан:  0 раз

Полного источника не было: Никогда

 
   
 
 
 
Автор Сообщение

galltoto.com

Создавать темы 02-Янв-2019 22:29

[Цитировать]

Счастливый конец / Хэппи энд / Šťastný konec / Stastny konec / Happy End
Страна: Чехословакия
Жанр: Комедия, экспериментальный
Год выхода: 1967
Продолжительность: 01:09:23
Перевод: Профессиональный (многоголосый закадровый) Студия "Кондор" по заказу ВГТРК
Субтитры: нет
Оригинальная аудиодорожка: чешский
Режиссер: Олдржих Липский / Oldrich Lipsky
В ролях: Владимир Меншик, Ярослава Обермайерова, Йозеф Арбгам, Богуш Загорски, Стелла Зазворкова, Гелена Ружичкова
Описание: Возможно впервые в кино фильм снят наоборот - от смерти человека до его рождения. Начинается с того как голову главного героя, отрубленную на гильотине , приставляют обратно, и он идет задом наперед к своей жене, которую в порыве ревности он разрубил на части , жена оживает, и они славно пьют чай с плюшками, которые вместо того, чтобы глотать, вынимают изо рта. И так далее. В фильме многие эпизоды прокручены назад - велосипеды и машины ездят задним ходом, при этом звуковой ряд не искажается. Весьма смелый и удачный эксперимент для кино 60-х годов.
Описать фильм никак нельзя. Можно только сказать, что у истории несчастливое начало и счастливый конец. То есть всё происходит в режиме rewind: отрубленная голова прирастает; осуждённый и конвоиры спиной вперёд идут от гильотины в камеру; одежда, ускоряясь в полёте, сама надевается на тело; во время чаепития пирожные от каждого укуса становятся больше; расчленённый труп собирается в единое целое... Всё задом наперёд.
Сэмпл: http://multi-up.com/1217933
Качество видео: DVDRip
Формат файла: AVI
Видео: MPEG4, XviD, 704x528 (4:3), 25.000 fps, 2 395 Kbps (0.258 bit/pixel)
Аудио: AC-3, 48.0 KHz, 2 ch, 192 Kbps, CBR - русский
Аудио 2: AC-3, 48.0 KHz, 2 ch, 192 Kbps, CBR - чешский

MediaInfo

ОбщееПолное имя : F:\Хэппи энд.aviФормат файла : AVIФормат файла/Информация : Audio Video InterleaveРазмер файла : 1,35 ГбайтПродолжительность : 1 ч. 9 м.Общий поток : 2794 Кбит/секНазвание фильма : Хэппи энд / Happy end / Stastny konec (1967)Программа кодирования : VirtualDubMod 1.5.10.2 (build 2540/release)Библиотека кодирования : VirtualDubMod build 2540/releaseАвторское право : miha2154
ВидеоИдентификатор : 0Формат файла : MPEG-4 VisualПрофиль формата : Advanced Simple@L5Настройки формата : BVOP1 / Custom MatrixПараметр BVOP формата : 1Параметр QPel формата : НетПараметр GMC формата : Без точки переходаПараметр матрицы формата : ВыборочнаяИдентификатор кодека : XVIDИдентификатор кодека/Подсказка : XviDПродолжительность : 1 ч. 9 м.Битрейт : 2395 Кбит/секШирина : 704 пикселяВысота : 528 пикселейСоотношение сторон : 4:3Частота кадров : 25,000 кадров/секЦветовое пространство : YUVСубдискретизация насыщенности : 4:2:0Битовая глубина : 8 битТип развёртки : ПрогрессивнаяМетод сжатия : С потерямиБит/(Пиксели*Кадры) : 0.258Размер потока : 1,16 Гбайт (86%)Библиотека кодирования : XviD 65
Аудио #1Идентификатор : 1Формат файла : AC-3Формат файла/Информация : Audio Coding 3Коммерческое название : Dolby DigitalИдентификатор кодека : 2000Продолжительность : 1 ч. 9 м.Вид битрейта : ПостоянныйБитрейт : 192 Кбит/секКаналы : 2 каналаChannel layout : L RЧастота : 48,0 КГцЧастота кадров : 31,250 кадров/сек (1536 SPF)Битовая глубина : 16 битМетод сжатия : С потерямиРазмер потока : 95,3 Мбайт (7%)Выравнивание : Разделение по промежуткамПродолжительность промежутка : 40 мс. (1,00 видеокадр)Время предзагрузки промежутка : 500 мс.Заголовок : Профессиональный (многоголосый, закадровый) КультураServiceKind/String : Complete Main
Аудио #2Идентификатор : 2Формат файла : AC-3Формат файла/Информация : Audio Coding 3Коммерческое название : Dolby DigitalИдентификатор кодека : 2000Продолжительность : 1 ч. 9 м.Вид битрейта : ПостоянныйБитрейт : 192 Кбит/секКаналы : 2 каналаChannel layout : L RЧастота : 48,0 КГцЧастота кадров : 31,250 кадров/сек (1536 SPF)Битовая глубина : 16 битМетод сжатия : С потерямиРазмер потока : 95,3 Мбайт (7%)Выравнивание : Разделение по промежуткамПродолжительность промежутка : 40 мс. (1,00 видеокадр)Время предзагрузки промежутка : 500 мс.Заголовок : ЧешскийServiceKind/String : Complete Main

Скриншоты




[galltoto.com]_t_5661888.torrent
Торрент: Зарегистрирован ·  [ 2019-01-02 22:29 ] ·  a888f173074893b682c4a0cca8493781e9d30a85

14 KB

Статус: проверено
Скачан: 0 раз
Размер: 1.35 GB
Оценка: 
(Голосов: 0)
Сказали спасибо: 0  Спасибо
Похожие темы
[Профиль]    [ЛС]
Показать сообщения:    
Ответить на тему

Текущее время: Сегодня 03:26

Часовой пояс: GMT + 7



Вы не можете начинать темы
Вы не можете отвечать на сообщения
Вы не можете редактировать свои сообщения
Вы не можете удалять свои сообщения
Вы не можете голосовать в опросах
Вы не можете прикреплять файлы к сообщениям
Вы можете скачивать файлы


Read More | Die Erdnuss-Reaktion - The Peanut Reaction | Unforgettable