Золотой Век / L\'Age d\'Or / L\'âge d\'or (Луис Бунюэль / Luis Bunuel) [1930, Франция, сюрреализм, драма, комедия, BDRip] VO (liosaa) + Original Fra + Sub Rus, Eng

Ответить на тему
Статистика раздачи [Обновить пиров]
Размер:  797 MB   |    Зарегистрирован:  16 дней   |    Скачан:  0 раз

Полного источника не было: Никогда

 
   
 
 
 
Автор Сообщение

galltoto.com

Создавать темы 02-Янв-2019 22:29

[Цитировать]

Золотой Век / L'Age d'Or / L'âge d'or
Год выхода: 1930
Страна: Франция
Жанр: сюрреализм, драма, комедия
Продолжительность: 01:02:37
Перевод: Одноголосый закадровый liosaa
Субтитры: русские liosaa, английские
Оригинальная аудиодорожка: французский (отдельно)
Режиссер: Луис Бунюэль / Luis Bunuel
В ролях: Гастон Модо, Лиа Лис, Каридад де Лабердеск, Макс Эрнст, Хосе Ллоренс Артигас, Лайонел Салем, Жермен Нойзе, Дюшанж, Бонавентура Ибанец
Описание: 1) От скорпиона пощады не жди -- будь ты хоть крыса, хоть его брат-скорпион;
2) Солдат-доходяга до поля брани с ружьишком вряд ли дойдёт;
3) А если при тебе мандат Посла Доброй Воли -- дай пенделя слепому с собачкой...
...Земные катаклизмы меркнут на фоне магнетизма двух влюблённых сердец. Во имя священной любви, доводящей до дрожи, до исступления (до сосания пальцев друг друга!) можно пережить многое. Но только не измену любимой со стариком-дирижёром, хотя в момент мучительной мигрени он так нуждается в женской ласке... О нет, теперь горячая рука ревнивца (от природы бУЙного малого) обрушит на мир град из палок, священнослужителей, жирафов, гусиного пуха и перьев...
6) Однако гнев ревнивого творца не остановит Сильных мира сего, кои вершат (под покровом церковных догматов) весьма и весьма бОГохульные мерзости...

Золотой образчик кино-хулиганства, в своё время облаянный и запрещённый к показу (типа, за особый цинизм). Пуля в лоб сыночку за баловство с отцовской махоркой -- представляете? Или культя, ласкающая женскую щёчку... нет, это надо видеть! Ныне фильм причислен к иконостасу авангарда и включён в национальный реестр культурного наследия
Доп. информация:..ПЕРЕВОД-2018!!.. А-то глянул на досуге свой вариант 2009г., остался страшно им недоволен и переделал всё с учётом опыта (видите ли, я тогда не угадал общую интонацию фильма, даром что он полунемой -- и всё как-то мимо зашло). Теперь и голос и текст субтитров звучат бодро и иронично, по-бунюэлевски, так что наслаждайтесь.. (Видео-файл любезно предоставил модератор teko -- большое ему спасибо!)
BDRip 720p (4.34 GB) перевод-2009
Blu-ray 1080p (22.23 GB) перевод-2009
**Ретро-ужасы в переводе **liosaa:
ВЕДЬМЫ: ИСТОРИЯ КОЛДОВСТВА (1922)
ВАМПИР: ВИДЕНИЕ АЛЛАНА ГРЕЯ (1932)
НЕПРОШЕНЫЕ ГОСТИ (1944)
ОСТРОВ МЕРТВЫХ (1945)
ПОРТРЕТ ДЖЕННИ (1948)
ПРОВИНЦИЯ ЯНСАН (1955)
Ким Ки-Ён NEW!!
НОЧЬ ДЕМОНА (1957)
ГОРНИЧНАЯ (1960) Ким Ки-Ён
КОРЁДЗЯН (1963) Ким КИ-Ён NEW!!
КРОВАВЫЙ ПИР (1963)
2.000 МАНЬЯКОВ! (1964)
ОСТРОВ ИО (1977) Ким Ки-Ён NEW!!

Качество видео: BDRip
Формат файла: AVI
Видео: 640x544 (1.18), 23.976 fps, XviD build 73 ~1514 kbps avg, 0.18 bit/pixel
Аудио 1: 48 kHz, AC3 Dolby Digital, 1/0 (C) ch, ~128.00 kbps avg (рус)
Аудио 2: 48 kHz, AC3 Dolby Digital, 1/0 (C) ch, ~128.00 kbps avg (fra) отдельно
Формат файла субтитров: softsub (SSA/ASS)

MediaInfo

Формат файла : AVIФормат файла/Информация : Audio Video InterleaveРазмер файла : 740 МбайтПродолжительность : 1 ч. 2 м.Общий поток : 1652 Кбит/секПрограмма кодирования : VirtualDubMod 1.5.10.2 (build 2540/release)Библиотека кодирования : VirtualDubMod build 2540/release
ВидеоИдентификатор : 0Формат файла : MPEG-4 VisualПрофиль формата : Advanced Simple@L5Параметр BVOP формата : 2Параметр QPel формата : НетПараметр GMC формата : Без точки переходаПараметр матрицы формата : ВыборочнаяИдентификатор кодека : XVIDИдентификатор кодека/Подсказка : XviDПродолжительность : 1 ч. 2 м.Битрейт : 1515 Кбит/секШирина : 640 пикселейВысота : 544 пикселяСоотношение сторон : 1,176Частота кадров : 23,976 (24000/1001) кадра/секЦветовое пространство : YUVСубдискретизация насыщенности : 4:2:0Битовая глубина : 8 битТип развёртки : ПрогрессивнаяМетод сжатия : С потерямиБит/(Пиксели*Кадры) : 0.181Размер потока : 678 Мбайт (92%)Библиотека кодирования : XviD 73
АудиоИдентификатор : 1Формат файла : AC-3Формат файла/Информация : Audio Coding 3Параметр Endianness формата : BigИдентификатор кодека : 2000Продолжительность : 1 ч. 2 м.Вид битрейта : ПостоянныйБитрейт : 128 Кбит/секКаналы : 1 каналРасположение каналов : Front: CЧастота : 48,0 КГцЧастота кадров : 31,250 кадров/сек (1536 SPF)Битовая глубина : 16 битМетод сжатия : С потерямиРазмер потока : 57,3 Мбайт (8%)Выравнивание : Разделение по промежуткамПродолжительность промежутка : 42 мс. (1,00 видеокадр)Время предзагрузки промежутка : 500 мс.ServiceKind/String : Complete Main

Скриншоты



[galltoto.com]_t_2800922.torrent
Торрент: Зарегистрирован ·  [ 2019-01-02 22:29 ] ·  6ebcd00b23ef1194f02881fed749beb4ab1894bc

16 KB

Статус: проверено
Скачан: 0 раз
Размер: 797 MB
Оценка: 
(Голосов: 0)
Сказали спасибо: 0  Спасибо
Похожие темы
[Профиль]    [ЛС]
Показать сообщения:    
Ответить на тему

Текущее время: Сегодня 03:26

Часовой пояс: GMT + 7



Вы не можете начинать темы
Вы не можете отвечать на сообщения
Вы не можете редактировать свои сообщения
Вы не можете удалять свои сообщения
Вы не можете голосовать в опросах
Вы не можете прикреплять файлы к сообщениям
Вы можете скачивать файлы


Tập 4 Gundam Build Fighters: Battlogue | La Monja BluRay-Screeener | SUB Andhadhun 2018-12-17 16:55:08 EP 1