Все утра мира / Tous les matins du monde (Ален Корно / Alain Corneau) [1991, Франция, Драма, музыкальный, HDRip] MVO (студия "СВ-Дубль") + Original Fra

Ответить на тему
Статистика раздачи [Обновить пиров]
Размер:  2.19 GB   |    Зарегистрирован:  16 дней   |    Скачан:  0 раз

Полного источника не было: Никогда

 
   
 
 
 
Автор Сообщение

galltoto.com

Создавать темы 02-Янв-2019 22:29

[Цитировать]

Все утра мира / Tous les matins du monde
Страна: Франция
Жанр: Драма, музыкальный
Год выхода: 1991
Продолжительность: 01:49:55
Перевод: Профессиональный (многоголосый закадровый) студия "СВ-Дубль"
Субтитры: нет
Оригинальная аудиодорожка: французский
Режиссер: Ален Корно / Alain Corneau
В ролях: Гийом Депардьё, Жерар Депардьё, Жорди Саваль, Анн Броше, Мишель Буке, Мириам Буайе, Жан-Клод Дрейфус, Жан-Пьер Марьель, Кароль Ришер
Описание: Экранизация романа Паскаля Киньяра.
Герои фильма - два французских композитора второй половины 17-го века: Сент-Коломб и Марэн Марэ (их играют Жан-Пьер Мариэль и Жерар Депардье). Но это ни в коем случае не биографическое киноповествование. Потому что есть еще одна и, вероятно, самая главная героиня фильма - Музыка. Мне кажется, что после 'АМАДЕЯ' Милоша Формана не было столь глубокого и столь пронзительного рассказа о том, как Музыка заменяет человеку все - родных и близких, любимых и незнакомых, страсти и треволнения. Как она становится Дыханием, Жизнью, Страданием и Смертью... Сыграно и снято на совершенно невообразимом художественном уровне.
Сэмпл: http://multi-up.com/1218375
Качество видео: HDRip
Формат файла: AVI
Видео: MPEG4, XviD, 720x432 (1.667), 25.000 fps, 2 191 Kbps (0.282 bit/pixel)
Аудио: AC-3, 48.0 KHz, 2 ch, 192 Kbps, CBR - русский
Аудио 2: AC-3, 48.0 KHz, 6 ch, 448 Kbps, CBR - французский

MediaInfo

ОбщееПолное имя : F:\Все утра мира.aviФормат файла : AVIФормат файла/Информация : Audio Video InterleaveПрофиль формата : OpenDMLРазмер файла : 2,19 ГбайтПродолжительность : 1 ч. 49 м.Общий поток : 2849 Кбит/секНазвание фильма : Все утра мира / Tous les matins du monde (1991)Программа кодирования : VirtualDubMod 1.5.10.2 (build 2540/release)Библиотека кодирования : VirtualDubMod build 2540/releaseАвторское право : miha2154
ВидеоИдентификатор : 0Формат файла : MPEG-4 VisualПрофиль формата : Advanced Simple@L5Настройки формата : BVOP1 / Custom MatrixПараметр BVOP формата : 1Параметр QPel формата : НетПараметр GMC формата : Без точки переходаПараметр матрицы формата : ВыборочнаяИдентификатор кодека : XVIDИдентификатор кодека/Подсказка : XviDПродолжительность : 1 ч. 49 м.Битрейт : 2191 Кбит/секШирина : 720 пикселейВысота : 432 пикселяСоотношение сторон : 5:3Частота кадров : 25,000 кадров/секЦветовое пространство : YUVСубдискретизация насыщенности : 4:2:0Битовая глубина : 8 битТип развёртки : ПрогрессивнаяМетод сжатия : С потерямиБит/(Пиксели*Кадры) : 0.282Размер потока : 1,68 Гбайт (77%)Библиотека кодирования : XviD 65
Аудио #1Идентификатор : 1Формат файла : AC-3Формат файла/Информация : Audio Coding 3Коммерческое название : Dolby DigitalИдентификатор кодека : 2000Продолжительность : 1 ч. 49 м.Вид битрейта : ПостоянныйБитрейт : 192 Кбит/секКаналы : 2 каналаChannel layout : L RЧастота : 48,0 КГцЧастота кадров : 31,250 кадров/сек (1536 SPF)Битовая глубина : 16 битМетод сжатия : С потерямиРазмер потока : 151 Мбайт (7%)Выравнивание : Разделение по промежуткамПродолжительность промежутка : 40 мс. (1,00 видеокадр)Время предзагрузки промежутка : 500 мс.Заголовок : Профессиональный (многоголосый, закадровый) КультураServiceKind/String : Complete Main
Аудио #2Идентификатор : 2Формат файла : AC-3Формат файла/Информация : Audio Coding 3Коммерческое название : Dolby DigitalИдентификатор кодека : 2000Продолжительность : 1 ч. 49 м.Вид битрейта : ПостоянныйБитрейт : 448 Кбит/секКаналы : 6 каналовChannel layout : L R C LFE Ls RsЧастота : 48,0 КГцЧастота кадров : 31,250 кадров/сек (1536 SPF)Битовая глубина : 16 битМетод сжатия : С потерямиРазмер потока : 352 Мбайт (16%)Выравнивание : Разделение по промежуткамПродолжительность промежутка : 40 мс. (1,00 видеокадр)Время предзагрузки промежутка : 500 мс.Заголовок : ФранцузскийServiceKind/String : Complete Main

Скриншоты




[galltoto.com]_t_5663993.torrent
Торрент: Зарегистрирован ·  [ 2019-01-02 22:29 ] ·  8a26d01669c4b044c7fce243d21c9a51f935eaa3

11 KB

Статус: проверено
Скачан: 0 раз
Размер: 2.19 GB
Оценка: 
(Голосов: 0)
Сказали спасибо: 0  Спасибо
Похожие темы
[Профиль]    [ЛС]
Показать сообщения:    
Ответить на тему

Текущее время: Сегодня 03:24

Часовой пояс: GMT + 7



Вы не можете начинать темы
Вы не можете отвечать на сообщения
Вы не можете редактировать свои сообщения
Вы не можете удалять свои сообщения
Вы не можете голосовать в опросах
Вы не можете прикреплять файлы к сообщениям
Вы можете скачивать файлы


Business Next – 2018-12-01 | 4D Silk Fiber Eyelash Mascara Extension Makeup Black Waterproof Kit Eye-Lashes_^ | Ricambi E Accessori Per Sfigmomanometro 1/2 Tubi - Bracciale Monopalla Rubinetto