Интриги Сильвии Куски / Les intrigues de Sylvia Couski (Адольфо Аррьета / Adolfo Arrieta) [1975, Франция, драма, фантазия, DVDRip-AVC] + Sub Rus (имя91имя) + Original Fra

Ответить на тему
Статистика раздачи [Обновить пиров]
Размер:  1.3 GB   |    Зарегистрирован:  16 дней   |    Скачан:  0 раз

Полного источника не было: Никогда

 
   
 
 
 
Автор Сообщение

galltoto.com

Создавать темы 02-Янв-2019 22:29

[Цитировать]

Интриги Сильвии Куски / Les intrigues de Sylvia Couski
Страна: Франция
Жанр: драма, фантазия
Год выхода: 1975
Продолжительность: 01:10:48
Перевод: Субтитры
Субтитры: русские
Оригинальная аудиодорожка: французский
Режиссер: Адольфо Аррьета / Adolfo Arrieta
В ролях: Мишель Моретти/Michèle Moretti, Ховард Вернон/Howard Vernon, Хавьер Грандес/Xavier Grandès, Гаэтан Гаэль/Gaëtane Gaël, Элен Азера/Hélène Hazera, Мишель Крессоль/Michel Cressolle, Мари Франс/Marie France
Описание: «В "Интригах Сильвии Куски", как следует из названия, есть если не история, то уже интрига. Бывшая жена известного скульптора подговаривает своего любовника украсть с готовящейся выставки статую и заменить ее живой моделью. Фильм получил главный приз кинофестиваля в Тулузе, обласкан критиками. Журнал Cahiers du cinéma в лице Нарбони, Бьетта и Данея включил Адольфо Аррьета в свой пантеон.
В роли живой статуи – Мари-Франс. Родившись мужчиной и перенеся операцию по смене пола, она стала самым известным в Париже имперсонатором Мэрилин Монро. Ее героиню окружают вычурные, роскошные, вульгарные, хрупкие, истеричные женщины в мехах и павлиньих перьях. Им нужно быть в центре внимания, они рады встать на подиум, постамент или в рамку. Подведенные глаза, заломленные руки, пальцы перебирают бусы – они позируют, танцуют, кокетничают перед камерой, и Мари-Франс во всем их превосходит; это концентрат искусственной женственности.
Вряд ли Аррьета читал работы Сьюзен Зонтаг, но "Интриги Сильвии Куски" выглядят экранизацией ее "Заметок о кэмпе"».
Камила Мамадназарбекова. В поисках утраченной наивности. «Игрушечный» кинематограф Адольфо Аррьеты
«Фильмы Аррьета, отказываясь говорить со зрителем на привычном ему языке, дают себя видеть по ту сторону конвенциальных способов восприятия, чтобы вернуть эффект удовольствия от опыта вúдения как такового. Непритязательность, кустарность технических решений словно подчёркивает – не это важно в "самом главном из искусств". Бьетт продолжает свою характеристику словами, что картины Аррьета таят в себе "богатство взглядов, жестов, фраз – бессмысленных и нелепых", тем самым отменяя коммуникативную функцию образа. Аналогично тому, как герой Хавьера Грандеса в начале фильма "Интриги Сильвии Куски" просто сидит на скамейке и его положение выражает совершенное безразличие к непосредственной "интриге" картины, так же все прочие фильмы режиссёра высвобождают кадр, жест, сцену от подчинения повествовательной логике. Персонажи этих фильмов общаются не для того, чтобы что-то сказать».
Олег Горяинов. Адольфо Аррьета. Детство ангела
Доп. информация: Перевод и тайминг – имя91имя.
Сэмпл: http://multi-up.com/1218456
Качество видео: DVDRip-AVC
Формат файла: MKV
Видео: V_MPEG4/ISO/AVC at 2381 kbps, 0.245 bit/pixel, 720x540 at 25,000 fps
Аудио: AC-3 at 192 kbps, 2 ch (Front: L R), 48,0 kHz

MediaInfo

GeneralUnique ID : 226567327302408218053036838904544864412 (0xAA7347AE8C6C575283B3868B1F43A89C)Complete name : C:\Adolfo Arrieta_Les intrigues de Sylvia Couski (1975).mkvFormat : MatroskaFormat version : Version 4File size : 1.30 GiBDuration : 1 h 10 minOverall bit rate : 2 624 kb/sMovie name : Tam TamEncoded date : UTC 2018-12-24 16:13:29Writing application : mkvmerge v6.9.1 ('Blue Panther') 32bit built on Apr 18 2014 18:15:44Writing library : libebml v1.3.0 + libmatroska v1.4.1
VideoID : 1Format : AVCFormat/Info : Advanced Video CodecFormat profile : High@L4.1Format settings : CABAC / 2 Ref FramesFormat settings, CABAC : YesFormat settings, ReFrames : 2 framesCodec ID : V_MPEG4/ISO/AVCDuration : 1 h 10 minBit rate : 2 380 kb/sWidth : 720 pixelsHeight : 540 pixelsDisplay aspect ratio : 4:3Frame rate mode : ConstantFrame rate : 25.000 FPSColor space : YUVChroma subsampling : 4:2:0Bit depth : 8 bitsScan type : ProgressiveBits/(Pixel*Frame) : 0.245Stream size : 1.18 GiB (91%)Writing library : x264 coreDefault : YesForced : NoColor range : LimitedColor primaries : BT.601 NTSCTransfer characteristics : BT.709Matrix coefficients : BT.601
AudioID : 2Format : AC-3Format/Info : Audio Coding 3Commercial name : Dolby DigitalCodec ID : A_AC3Duration : 1 h 10 minBit rate mode : ConstantBit rate : 192 kb/sChannel(s) : 2 channelsChannel layout : L RSampling rate : 48.0 kHzFrame rate : 31.250 FPS (1536 SPF)Bit depth : 16 bitsCompression mode : LossyStream size : 97.2 MiB (7%)Service kind : Complete MainDefault : YesForced : No
TextID : 3Format : UTF-8Codec ID : S_TEXT/UTF8Codec ID/Info : UTF-8 Plain TextLanguage : RussianDefault : YesForced : No
Menu00:00:00.000 : en:(01)00:00:00:00000:04:46.560 : en:(02)00:04:46:56000:09:42.720 : en:(03)00:09:42:72000:14:07.200 : en:(04)00:14:07:20000:20:49.440 : en:(05)00:20:49:44000:25:10.080 : en:(06)00:25:10:08000:29:25.920 : en:(07)00:29:25:92000:37:25.920 : en:(08)00:37:25:92000:40:17.760 : en:(09)00:40:17:76000:46:45.120 : en:(10)00:46:45:12000:53:00.480 : en:(11)00:53:00:48000:59:34.080 : en:(12)00:59:34:08001:05:07.680 : en:(13)01:05:07:680

Фрагмент субтитров

1
00:00:04,440 --> 00:00:09,000
Интриги Сильвии Куски
Фильм Адольфо Аррьета
2
00:14:45,280 --> 00:14:46,235
Ради всего святого, послушай!
3
00:14:51,679 --> 00:14:53,237
Она смеется надо мной!
4
00:14:55,279 --> 00:14:58,112
– Послушай, я тебе говорю...
– Послушай, дорогая, это очень...
5
00:14:58,320 --> 00:15:01,995
– ...с тобой...
– Это невыносимо!
6
00:15:03,679 --> 00:15:06,671
Я ухожу! Ухожу! Ухожу!
7
00:15:43,280 --> 00:15:44,349
Ты знаешь ее, не так ли?
8
00:15:45,120 --> 00:15:46,394
Конечно.
9
00:15:47,080 --> 00:15:48,149
Это Кармен.
10
00:15:49,839 --> 00:15:51,511
Но в чем дело?
11
00:15:51,919 --> 00:15:55,594
Мой бывший муж, скульптор,
устраивает вечеринку. Ты приглашен.
12
00:15:55,799 --> 00:15:59,997
Около 11 тебе нужно зайти
в его мастерскую.
13
00:16:00,559 --> 00:16:03,692
Там ты увидишь его работу –
пластиковую копию Кармен.
14
00:16:03,968 --> 00:16:05,535
Выброси ее из окна.
15
00:16:05,640 --> 00:16:07,278
Я буду ждать тебя в машине.
16
00:16:08,839 --> 00:16:09,954
А потом?
17
00:16:10,719 --> 00:16:12,038
Ты вернешься на вечеринку.
18
00:16:14,639 --> 00:16:16,038
Поговоришь с ним...
19
00:16:17,360 --> 00:16:18,713
Успокоишь его...
20
00:16:20,920 --> 00:16:24,151
А затем ты предложишь ему
выставить Кармен лично,

Скриншот c названием фильма

Скриншоты



[galltoto.com]_t_5664338.torrent
Торрент: Зарегистрирован ·  [ 2019-01-02 22:29 ] ·  1cb87d76bd2bac91bc9e69bd0d45a4cc4f8fc6d6

13 KB

Статус: проверено
Скачан: 0 раз
Размер: 1.3 GB
Оценка: 
(Голосов: 0)
Сказали спасибо: 0  Спасибо
Похожие темы
[Профиль]    [ЛС]
Показать сообщения:    
Ответить на тему

Текущее время: Сегодня 03:23

Часовой пояс: GMT + 7



Вы не можете начинать темы
Вы не можете отвечать на сообщения
Вы не можете редактировать свои сообщения
Вы не можете удалять свои сообщения
Вы не можете голосовать в опросах
Вы не можете прикреплять файлы к сообщениям
Вы можете скачивать файлы


Agriculture & Forestry | Women's Max Control Solid High Impact Plus Size Underwire Sports Bra.. | Accepte les offres