Смерть директора блошиного цирка / Der Tod des Flohzirkusdirektors / Death of the Flea Circus Director (Томас Кёрфер / Томас Керфер / Thomas Koerfer) [1973, Швейцария, Франция, драма, DVDRip] + Sub Rus

Ответить на тему
Статистика раздачи [Обновить пиров]
Размер:  1.08 GB   |    Зарегистрирован:  16 дней   |    Скачан:  0 раз

Полного источника не было: Никогда

 
   
 
 
 
Автор Сообщение

galltoto.com

Создавать темы 02-Янв-2019 22:29

[Цитировать]

Смерть директора блошиного цирка / Der Tod des Flohzirkusdirektors / Death of the Flea Circus Director
Страна: Швейцария, Франция
Жанр: драма
Год выхода: 1973
Продолжительность: 01:48:13
Перевод: Субтитры
Субтитры: русские
Оригинальная аудиодорожка: французская, немецкая
Режиссер: Томас Кёрфер / Томас Керфер / Thomas Koerfer
В ролях: Франсуа Симон/François Simon, Поль Гогель/Paul Gogel, Норберт Швентек/Norbert Schwientek, Жанин Вейль/Janine Weill, Готард Дитрих/Gothard Dietrich, Герард Дорфер/Gerhard Dorfer, Петер Кнер/Peter Kner, Вольфганг Роттшепер/Wolfgang Rottsieper
Описание: Оттокаро Вайс – директор блошиного цирка. Живёт в шатре, перебивается мелкими гонорарами за представления, в которых блохи разыгрывают исторические сцены и играют Наполеонов и Клеопатр. Однажды вертолёт опрыскивает поля инсектицидами, и блохи герра Вайса подыхают. Цирк на грани исчезновения. Вайс попадает на празднование 500-летия деревни Чумное поле и ему в голову приходит идея новой программы. Так начинается путь человека, который не понимает, что он делает – путь, приводящий к смерти.
Томас Кёрфер дебютирует в кинематографе экранизацией малоизвестной пьесы Бертольта Брехта – дебютирует уверенно, насколько это позволяет бюджет. Все признаки «бедной новой швейцарской волны» налицо: чёрно-белое изображение, плёнка 16 мм, которая после «раздута» до 35 мм, минимальная съёмочная группа. Фильм держится на скупых мизансценах и игре замечательного Франсуа Симона, который воплотил Оттокаро Вайса самым удивительным образом и позволил развернуть аллегорию чумы максимально широко.
Доп. информация: Перевод – mevoxem, ре-тайминг и подготовка субтитров – alex-kin.
Фрагмент трагедии Софокла «Царь Эдип» приведен в переводе С. В. Шервинского.
Сэмпл: http://multi-up.com/1218550
Качество видео: DVDRip
Формат файла: AVI
Видео: XviD MPEG-4 at 1411 kbps avg, 0.15 bit/pixel, 720x512 (1.41:1) at 25 fps
Аудио: MPEG Layer 3 at 128.00 kbps avg, 2 ch, 48 kHz
Формат файла субтитров: softsub (SRT)

MediaInfo

GeneralComplete name : C:\Thomas Koerfer_Der Tod des Flohzirkusdirektors (1973)\Thomas Koerfer_Der Tod des Flohzirkusdirektors (1973).aviFormat : AVIFormat/Info : Audio Video InterleaveFile size : 1.08 GiBDuration : 1 h 48 minOverall bit rate : 1 426 kb/s
VideoID : 0Format : MPEG-4 VisualFormat settings : BVOP / Custom MatrixFormat settings, BVOP : YesFormat settings, QPel : NoFormat settings, GMC : No warppointsFormat settings, Matrix : CustomCodec ID : XVIDCodec ID/Hint : XviDDuration : 1 h 48 minBit rate : 1 284 kb/sWidth : 720 pixelsHeight : 512 pixelsDisplay aspect ratio : 1.406Frame rate : 25.000 FPSColor space : YUVChroma subsampling : 4:2:0Bit depth : 8 bitsScan type : ProgressiveCompression mode : LossyBits/(Pixel*Frame) : 0.139Stream size : 994 MiB (90%)
AudioID : 1Format : MPEG AudioFormat version : Version 1Format profile : Layer 3Format settings : Joint stereo / MS StereoCodec ID : 55Codec ID/Hint : MP3Duration : 1 h 48 minBit rate mode : ConstantBit rate : 128 kb/sChannel(s) : 2 channelsSampling rate : 48.0 kHzCompression mode : LossyStream size : 99.1 MiB (9%)Alignment : Split accross interleavesInterleave, duration : 24 ms (0.60 video frame)

Фрагмент субтитров

1
00:00:02,606 --> 00:00:05,166
СМЕРТЬ
ДИРЕКТОРА БЛОШИНОГО ЦИРКА
2
00:00:06,480 --> 00:00:11,070
ИЛИ
ОТТОКАРО ВАЙС ПРЕДСТАВЛЯЕТ СВОЮ ФИРМУ
3
00:01:06,520 --> 00:01:08,805
Режиссёр и продюсер
Томас Кёрфер
4
00:01:13,686 --> 00:01:18,122
Исчезает последний в мире
блошиный цирк.
5
00:01:18,206 --> 00:01:24,199
Эта давно известная профессия была
создана для того, чтобы организовывать,
6
00:01:24,406 --> 00:01:28,442
искать иные возможности
получения прибыли.
7
00:01:28,646 --> 00:01:32,876
Это и есть главная тема
нашего фильма.
8
00:01:55,966 --> 00:01:57,081
Имя?
9
00:01:57,406 --> 00:01:58,805
Оттокаро Вайс.
10
00:01:59,286 --> 00:02:07,641
В-а-й-с, О-т-т-о К-а-р-л.
11
00:02:08,366 --> 00:02:10,755
Оттокаро, с «о» в конце, не Отто Карл.
12
00:02:16,206 --> 00:02:17,934
– Место рождения?
– Марсель.
13
00:02:23,200 --> 00:02:24,450
Мар-сель.
14
00:02:28,326 --> 00:02:29,964
Но вы же швейцарец?
15
00:02:30,406 --> 00:02:31,725
Пожалуй, да.
16
00:02:39,806 --> 00:02:44,163
И чем вы занимаетесь,
позвольте спросить?
17
00:02:45,086 --> 00:02:46,644
Я – директор блошиного цирка.
18
00:03:17,086 --> 00:03:19,160
Кормление зверей
19
00:04:12,126 --> 00:04:13,605
Давайте, дети мои!
20
00:04:15,086 --> 00:04:17,680
С этого дня вы уже не французы.

Скриншот c названием фильма

Скриншоты



[galltoto.com]_t_5664897.torrent
Торрент: Зарегистрирован ·  [ 2019-01-02 22:29 ] ·  64a9993446f915a50d700b9ee55bbccb730c1ae8

11 KB

Статус: проверено
Скачан: 0 раз
Размер: 1.08 GB
Оценка: 
(Голосов: 0)
Сказали спасибо: 0  Спасибо
Похожие темы
[Профиль]    [ЛС]
Показать сообщения:    
Ответить на тему

Текущее время: Сегодня 03:20

Часовой пояс: GMT + 7



Вы не можете начинать темы
Вы не можете отвечать на сообщения
Вы не можете редактировать свои сообщения
Вы не можете удалять свои сообщения
Вы не можете голосовать в опросах
Вы не можете прикреплять файлы к сообщениям
Вы можете скачивать файлы


Cold Case Shinjitsu ... | В сердце моря / In the Heart of the Sea (2015) HDRip | Line | Tales of Demons and Gods 205