Дом, который построил Джек / The House That Jack Built (Ларс фон Триер / Lars von Trier) [2018, Дания, ужасы, триллер, драма, комедия, WEB-DLRip] VO (Яроцкий)

Ответить на тему
Статистика раздачи [Обновить пиров]
Размер:  1.48 GB   |    Зарегистрирован:  16 дней   |    Скачан:  0 раз

Полного источника не было: Никогда

 
   
 
 
 
Автор Сообщение

galltoto.com

Создавать темы 02-Янв-2019 22:29

[Цитировать]

Дом, который построил Джек / The House That Jack Built- Год выхода: 2018
Выпущено: Дания, Франция, Германия, Швеция
Жанр: ужасы, триллер, драма, комедия
Продолжительность: 02:30:49
Перевод: Одноголосый закадровый Михаил Яроцкий - Ненормативная лексика
Субтитры: нет-Режиссер:
Ларс фон Триер / Lars von Trier-В ролях:
Мэтт Диллон, Бруно Ганц, Ума Турман, Шиван Фэллон, Софи Гробёль, Райли Кио, Джереми Дэвис, Эдвард Спелирс, Дэвид Бэйли, Ю Джи-тхэ-О фильме:
История серийного убийцы по имени Джек разворачивается в Америке 70-х. За 12 лет блестящей «карьеры» Джеку встретятся назойливая попутчица, наивная подружка и другие очаровательные в своей глупости жертвы. Пять невероятных, до жути изобретательных и порой до смеха абсурдных убийств, к каждому из которых Джек относится как к настоящему произведению искусства.-
| | IMDB | КиноПоиск | Сэмпл |-Качество: WEB-DLRip [The.House.That.Jack.Built.2018.1080p.AMZN.WEB-DL.DDP5.1.H.264-NTG]
Формат файла: AVI
Видео: 720x304 (2.37:1), 24.000 fps, XviD build 67 ~1200 kbps avg, 0.23 bit/pixel
Аудио: 48 kHz, AC3 Dolby Digital, 2/0 (L,R) ch, ~192 kbps avg-
- MediaInfo">

Скриншоты - MediaInfo

Полное имя                               : D:\Dom_kotoryi_postroil_Djek_2018_WEB-DLRip_VO_by_Dalemake.avi
Формат файла                                   : AVI
Формат файла/Информация                        : Audio Video Interleave
Размер файла                             : 1,48 Гбайт
Продолжительность                        : 2 ч. 30 м.
Общий поток                              : 1400 Кбит/сек
Программа кодирования                    : VirtualDubMod 1.5.10.3 | www.virtualdub-fr.org || (build 2550/release)
Библиотека кодирования                   : VirtualDubMod build 2550/release
Видео
Идентификатор                            : 0
Формат файла                                   : MPEG-4 Visual
Профиль формата                          : Advanced Simple@L5
Параметр BVOP формата                    : 1
Параметр QPel формата                    : Нет
Параметр GMC формата                     : Без точки перехода
Параметр матрицы формата                 : Выборочная
Идентификатор кодека                     : XVID
Идентификатор кодека/Подсказка           : XviD
Продолжительность                        : 2 ч. 30 м.
Битрейт                                  : 1199 Кбит/сек
Ширина                                   : 720 пикселей
Высота                                   : 304 пикселя
Соотношение сторон                       : 2,35:1
Частота кадров                           : 24,000 кадра/сек
Цветовое пространство                    : YUV
Субдискретизация насыщенности            : 4:2:0
Битовая глубина                          : 8 бит
Тип развёртки                            : Прогрессивная
Метод сжатия                             : С потерями
Бит/(Пиксели*Кадры)                      : 0.228
Размер потока                            : 1,26 Гбайт (86%)
Библиотека кодирования                   : XviD 67
Аудио
Идентификатор                            : 1
Формат файла                                   : AC-3
Формат файла/Информация                        : Audio Coding 3
Расширение режима                        : CM (complete main)
Параметр Endianness формата              : Big
Идентификатор кодека                     : 2000
Продолжительность                        : 2 ч. 30 м.
Вид битрейта                             : Постоянный
Битрейт                                  : 192 Кбит/сек
Каналы                                   : 2 канала
Расположение каналов                     : Front: L R
Частота                                  : 48,0 КГц
Битовая глубина                          : 16 бит
Метод сжатия                             : С потерями
Размер потока                            : 207 Мбайт (14%)
Выравнивание                             : Разделение по промежуткам
Продолжительность промежутка             : 42  мс. (1,00 видеокадр)
Время предзагрузки промежутка            : 500  мс.
-При появлении проф. перевода рип будет перезалит!-


[galltoto.com]_t_5661646.torrent
Торрент: Зарегистрирован ·  [ 2019-01-02 22:29 ] ·  a49cdb572be1dc8135fdb5182ea8a94072a3ad25

15 KB

Статус: проверено
Скачан: 0 раз
Размер: 1.48 GB
Оценка: 
(Голосов: 0)
Сказали спасибо: 0  Спасибо
Похожие темы
[Профиль]    [ЛС]
Показать сообщения:    
Ответить на тему

Текущее время: Сегодня 03:13

Часовой пояс: GMT + 7



Вы не можете начинать темы
Вы не можете отвечать на сообщения
Вы не можете редактировать свои сообщения
Вы не можете удалять свои сообщения
Вы не можете голосовать в опросах
Вы не можете прикреплять файлы к сообщениям
Вы можете скачивать файлы


100 Dias De Soledad BluRay MicroHD | Watch Movie | Theo e Hugo (Théo et Hugo dans le même bateau) 2016