Фотоувеличение / Blow-Up (Микеланджело Антониони / Michelangelo Antonioni) [1966, Великобритания, Италия, США, триллер, драма, детектив, BDRip] AVO (Юрий Сербин)

Ответить на тему
Статистика раздачи [Обновить пиров]
Размер:  1.48 GB   |    Зарегистрирован:  16 дней   |    Скачан:  0 раз

Полного источника не было: Никогда

 
   
 
 
 
Автор Сообщение

galltoto.com

Создавать темы 02-Янв-2019 22:29

[Цитировать]

Фотоувеличение / Blow-Up
Страна: Великобритания, Италия, США
Жанр: триллер, детектив, драма
Год выхода: 1966
Продолжительность: 01:51:41
Перевод: Авторский (одноголосый закадровый) Юрий Сербин
Субтитры: нет
Режиссер: Микеланджело Антониони / Michelangelo Antonioni
В ролях: Дэвид Хеммингс, Ванесса Редгрейв, Сара Майлз, Джон Касл, Джейн Биркин, Джиллиан Хиллс, Питер Боулз, Верушка Лендорф, Джулиан Шагрин
Описание: Главный герой, фотограф Томас тратит все свое время на проведение фотосессий с участием малоинтересных моделей, а лучшие снимки у него получаются, когда он снимает нищих и бродяг. Однажды, оказавшись в пустом парке, Томас фотографирует тихое, безобидное любовное свидание мужчины и молодой девушки. Девушка преследует Томаса и требует вернуть пленку. Томас подсовывает ей другую, а сам проявляет фотографии. После печати, он обнаруживает на фотографиях свидетельства убийства: на одном из них при многократном увеличении он видит на заднем плане руку с пистолетом и предмет на земле, очень похожий на труп. Он возвращается в парк и в самом деле обнаруживает тело. Однако на следующий день труп исчезает, так же как и фотопленка со студии...

Сэмпл: http://multi-up.com/1218634
Качество видео: BDRip (Источник: Torrentc BDRemux 1080p)
Формат файла: AVI
Видео: XviD 73, 720x384, (1,85:1), 23,976 fps, 1695 Кбит/с, 8 бит, 0.26 bit/pixel
Аудио: Русский (АС3, 2 ch (Front: L R), 48,0 KHz, 192 Kbps)

MediaInfo

ОбщееПолное имя : H:\Фильмы на трекер\Фотоувеличение (триллер, драма, детектив 1966 год).aviФормат файла : AVIФормат файла/Информация : Audio Video InterleaveРазмер файла : 1,48 ГбайтПродолжительность : 1 ч. 51 м.Общий поток : 1896 Кбит/секПрограмма кодирования : VirtualDubMod 1.5.10.2 (build 2540/release)Библиотека кодирования : VirtualDubMod build 2540/release
ВидеоИдентификатор : 0Формат файла : MPEG-4 VisualПрофиль формата : Advanced Simple@L5Параметр BVOP формата : 2Параметр QPel формата : НетПараметр GMC формата : Без точки переходаПараметр матрицы формата : ВыборочнаяИдентификатор кодека : XVIDИдентификатор кодека/Подсказка : XviDПродолжительность : 1 ч. 51 м.Битрейт : 1695 Кбит/секШирина : 720 пикселейВысота : 384 пикселяСоотношение сторон : 1,85:1Частота кадров : 23,976 (23976/1000) кадра/секЦветовое пространство : YUVСубдискретизация насыщенности : 4:2:0Битовая глубина : 8 битТип развёртки : ПрогрессивнаяМетод сжатия : С потерямиБит/(Пиксели*Кадры) : 0.256Размер потока : 1,32 Гбайт (89%)Библиотека кодирования : XviD 73
АудиоИдентификатор : 1Формат файла : AC-3Формат файла/Информация : Audio Coding 3Расширение режима : CM (complete main)Параметр Endianness формата : BigИдентификатор кодека : 2000Продолжительность : 1 ч. 51 м.Вид битрейта : ПостоянныйБитрейт : 192 Кбит/секКаналы : 2 каналаРасположение каналов : Front: L RЧастота : 48,0 КГцЧастота кадров : 31,250 кадров/сек (1536 spf)Метод сжатия : С потерямиРазмер потока : 153 Мбайт (10%)Выравнивание : Разделение по промежуткамПродолжительность промежутка : 42 мс. (1,00 видеокадр)Время предзагрузки промежутка : 500 мс.

Скриншот c названием фильма

Скриншоты



[galltoto.com]_t_5665657.torrent
Торрент: Зарегистрирован ·  [ 2019-01-02 22:29 ] ·  0224712e0d7f57e309a124a1bbaaefdf162e4566

15 KB

Статус: проверено
Скачан: 0 раз
Размер: 1.48 GB
Оценка: 
(Голосов: 0)
Сказали спасибо: 0  Спасибо
Похожие темы
[Профиль]    [ЛС]
Показать сообщения:    
Ответить на тему

Текущее время: Сегодня 03:11

Часовой пояс: GMT + 7



Вы не можете начинать темы
Вы не можете отвечать на сообщения
Вы не можете редактировать свои сообщения
Вы не можете удалять свои сообщения
Вы не можете голосовать в опросах
Вы не можете прикреплять файлы к сообщениям
Вы можете скачивать файлы


Genuino Nikon D5600 Digital SLR Camera + AF-P DX Nikkor 18-55mm f/3.5-5.6G VR | £0 Shipping | Tracey Ullman's Show